_KOOK
武林高手

[2016] [韩国] [爱情] [WEB-1080P] 周末夫妇.Weekend Couple.2016.KR.WEB-DL.1920x1080p.x264.MP3-KOOK.[韩语中字] 2.87GB

-->

周末夫妇.Weekend Couple.2016.KR.WEB-DL.1920x1080p.x264.MP3-KOOK.[韩语中字] 2.87GB

无广告,无水印

不定时做种,保证出种,请耐心等待.


※※※※※※※ 影片信息 ※※※※※※※


◎片   名 周末夫妇

◎译   名 周末夫妻 / 假日夫妇 / Weekend Couple

◎年   代 2016

◎国   家 韩国

◎类   别 剧情 / 爱情 / 情色

◎语   言 韩语

◎上映日 期 2016-07-12(韩国)

◎字   幕 简体字幕/繁体字幕

◎豆瓣 评分  5.0/10 from 145 users

◎视频尺 寸  1920x1080p

◎片   长 1.25.35 

◎主   演 安昭希 / 姜艺娜



#438

 

◎简  介




  米兰和他老公是一对周末夫妇,分隔两地,两人说好各自找寻自己的炮友,永亨和米兰相遇,两人打得火热,永亨也离开自己女友,这时米兰老公找上门来,他们未来会发生什么呢........




※※※※※※※ 参数信息 ※※※※※※※




General

Unique ID                      : 190887186138367669665465588093223994334 (0x8F9B88E73C3AC84A902013E3662883DE)


Format version                 : Version 4 / Version 2

File size                      : 2.88 GiB

Duration                       : 1h 25mn

Overall bit rate               : 4 818 Kbps

Movie name                     : KOOK

Encoded date                   : UTC 2019-08-17 13:30:12

Writing application            : mkvmerge v7.7.0 ('Six Voices') 32bit built on Feb 28 2015 23:23:00

Writing library                : libebml v1.3.1 + libmatroska v1.4.2

Attachements                   : 正式海报.jpg / fzgljw.ttf / fzglfw.ttf


Video

ID                             : 1

Format                         : AVC

Format/Info                    : Advanced Video Codec

Format profile                 : [email protected]

Format settings, CABAC         : No

Format settings, ReFrames      : 1 frame

Codec ID                       : V_MPEG4/ISO/AVC

Duration                       : 1h 25mn

Bit rate                       : 4 695 Kbps

Width                          : 1 920 pixels

Height                         : 1 080 pixels

Display aspect ratio           : 16:9

Frame rate mode                : Constant

Frame rate                     : 24.000 fps

Color space                    : YUV

Chroma subsampling             : 4:2:0

Bit depth                      : 8 bits

Scan type                      : Progressive

Bits/(Pixel*Frame)             : 0.094

Stream size                    : 2.81 GiB (97%)

Default                        : Yes

Forced                         : No


Audio

ID                             : 2

Format                         : MPEG Audio

Format version                 : Version 1

Format profile                 : Layer 3

Mode                           : Joint stereo

Mode extension                 : MS Stereo

Codec ID                       : A_MPEG/L3

Codec ID/Hint                  : MP3

Duration                       : 1h 25mn

Bit rate mode                  : Constant

Bit rate                       : 96.0 Kbps

Channel(s)                     : 2 channels

Sampling rate                  : 44.1 KHz

Frame rate                     : 38.281 fps (1152 spf)

Compression mode               : Lossy

Stream size                    : 58.8 MiB (2%)

Writing library                : LAME3.98.2

Default                        : No

Forced                         : No


Text #1

ID                             : 3

Format                         : ASS

Codec ID                       : S_TEXT/ASS

Codec ID/Info                  : Advanced Sub Station Alpha

Duration                       : 1h 24mn

Bit rate                       : 70 bps

Count of elements              : 696

Compression mode               : Lossless

Stream size                    : 43.5 KiB (0%)

Title                          : 简体字幕

Language                       : Chinese

Default                        : Yes

Forced                         : No


Text #2

ID                             : 4

Format                         : ASS

Codec ID                       : S_TEXT/ASS

Codec ID/Info                  : Advanced Sub Station Alpha

Duration                       : 1h 24mn

Bit rate                       : 70 bps

Count of elements              : 696

Compression mode               : Lossless

Stream size                    : 43.5 KiB (0%)

Title                          : 繁体字幕

Language                       : Chinese

Default                        : No

Forced                         : No


1 个附件 售价 大小 下载 时间

周末夫妇.Weekend Couple.2016.KR.WEB-DL.1920x1080p.x264.MP3-KOOK.[韩语中字].torrent 0 金币 119.08K 5201 次 1月前

#1楼
发帖时间:2019-08-18 19:26:21   |   回复数:8
cliff168
武林高手
感谢分享好东西
1月前 #2楼
911degrees
隐世仙人♂
非常感谢,谢谢分享
1月前 #3楼
tokyoal
武林盟主
非常感谢,谢谢分享
1月前 #4楼
liyouchai
隐世仙人♂
谢谢楼主分享资源
1月前 #5楼
hzhtc_555
江湖小虾
非常感谢,谢谢分享。
1月前 #6楼
yy_net
一派掌门
不错的片子,谢谢啊!
1月前 #7楼
tanchoohoon
武林盟主
感谢楼主的无私分享
1月前 #8楼
pokuan909
武林高手
感谢分享
1月前 #9楼
游客组