conanlcg
超级版主

[2011] [其他] [剧情] [BD-1080P] 藏獒多吉 Tibetan.Dog.2011.1080p.BluRay.x264-HAiKU 6.56GB

-->

帖子完整标题:藏獒多吉 Tibetan.Dog.2011.1080p.BluRay.x264-HAiKU 6.56GB




◎译  名 The Tibetan Dog
◎片  名 藏獒多吉
◎年  代 2011
◎产  地 中国大陆 / 日本
◎类  别 剧情 / 动画 / 悬疑 / 冒险
◎语  言 日语
◎上映日期 2011-07-15(中国大陆) / 2012-01-07(日本)
◎IMDb评分 6.8/10 from 150 users
◎IMDb链接 http://www.imdb.com/title/tt2411128
◎豆瓣评分 7.8/10 from 10853 users
◎豆瓣链接 https://movie.douban.com/subject/5948613/
◎片  长 95分钟
◎导  演 小岛正幸 Masayuki Kojima
◎编  剧 杨志军 Zhi Jun Yang / 井上尚登 Naoto Inoue
◎主  演 刘婧荦 Jingluo Liu
      阿兰 Alan Dawa Dolma
      茫来 Manglai
      赵岭 Ling Zhao
      周志强 Zhiqiang Zhou
      王博 Bo Wang
      张瑶函 Yaohan Zhang
      赵晓明 Xiaoming Zhao
      张伟 Wei Zhang
      李世荣 Shirong Li
      徐涛 Tao Xu


◎标  签 动画 | 中国 | 日本 | 西藏 | 狗狗 | 感人 | 2011 | 狗

◎简  介

  少年田劲的父母早年为了将西医带入藏地做出了无数的牺牲,由于无法适应高原的生活,田劲的妈妈带着尚在襁褓中的儿子返回内地,爸爸拉格巴则在高原继续着他的事业。数年过后,妈妈病故,无依无靠的田劲来到高原寻找爸爸,然而心中却藏着无数的怨恨。拉格巴终日忙碌行医,任凭儿子自行学习牧羊。某天,田劲遭到狗熊的威胁,幸亏一只金色的藏獒相助,后来更因种种机缘让他与这只名叫多吉的藏獒成为最亲密的朋友。与此同时,草原上出现了专门残害生灵的恶魔,牧民的平静生活被彻底打破……
  本片根据杨志军的小说《藏獒》改编,由中日两国联合制作,日本著名漫画家浦泽直树还担任了人设和导演的工作。
Video
ID : 1
Format : AVC
Format/Info : Advanced Video Codec
Format profile : [email protected]
Format settings : CABAC / 4 Ref Frames
Format settings, CABAC : Yes
Format settings, ReFrames : 4 frames
Codec ID : V_MPEG4/ISO/AVC
Duration : 1 h 32 min
Bit rate : 7 192 kb/s
Width : 1 920 pixels
Height : 1 080 pixels
Display aspect ratio : 16:9
Frame rate mode : Constant
Frame rate : 23.976 (24000/1001) FPS
Color space : YUV
Chroma subsampling : 4:2:0
Bit depth : 8 bits
Scan type : Progressive
Bits/(Pixel*Frame) : 0.145
Stream size : 4.65 GiB (71%)
Writing library : x264 core 157 r2935 545de2f
Encoding settings : cabac=1 / ref=4 / deblock=1:1:1 / analyse=0x3:0x133 / me=umh / subme=9 / psy=1 / psy_rd=0.40:0.00 / mixed_ref=1 / me_range=16 / chroma_me=1 / trellis=2 / 8x8dct=1 / cqm=0 / deadzone=21,11 / fast_pskip=0 / chroma_qp_offset=-2 / threads=24 / lookahead_threads=2 / sliced_threads=0 / nr=0 / decimate=1 / interlaced=0 / bluray_compat=0 / constrained_intra=0 / bframes=5 / b_pyramid=2 / b_adapt=2 / b_bias=0 / direct=3 / weightb=1 / open_gop=0 / weightp=2 / keyint=240 / keyint_min=23 / scenecut=40 / intra_refresh=0 / rc_lookahead=50 / rc=2pass / mbtree=1 / bitrate=7192 / ratetol=1.0 / qcomp=0.60 / qpmin=0 / qpmax=69 / qpstep=4 / cplxblur=20.0 / qblur=0.5 / ip_ratio=1.40 / aq=1:0.60
Default : Yes
Forced : No

Audio #1
ID : 2
Format : DTS
Format/Info : Digital Theater Systems
Codec ID : A_DTS
Duration : 1 h 30 min
Bit rate mode : Constant
Bit rate : 1 509 kb/s
Channel(s) : 6 channels
Channel layout : C L R Ls Rs LFE
Sampling rate : 48.0 kHz
Frame rate : 93.750 FPS (512 SPF)
Bit depth : 24 bits
Compression mode : Lossy
Stream size : 975 MiB (15%)
Language : Japanese
Default : Yes
Forced : Yes

Audio #2
ID : 4
Format : DTS
Format/Info : Digital Theater Systems
Codec ID : A_DTS
Duration : 1 h 30 min
Bit rate mode : Constant
Bit rate : 1 509 kb/s
Channel(s) : 6 channels
Channel layout : C L R Ls Rs LFE
Sampling rate : 48.0 kHz
Frame rate : 93.750 FPS (512 SPF)
Bit depth : 24 bits
Compression mode : Lossy
Stream size : 975 MiB (15%)
Language : English
Default : No
Forced : No

Text #1
ID : 3
Format : UTF-8
Codec ID : S_TEXT/UTF8
Codec ID/Info : UTF-8 Plain Text
Duration : 1 h 29 min
Bit rate : 40 b/s
Count of elements : 953
Stream size : 26.4 KiB (0%)
Title : English
Language : English
Default : Yes
Forced : Yes

Text #2
ID : 5
Format : UTF-8
Codec ID : S_TEXT/UTF8
Codec ID/Info : UTF-8 Plain Text
Duration : 1 h 28 min
Bit rate : 2 b/s
Count of elements : 45
Stream size : 1.74 KiB (0%)
Title : English
Language : English
Default : No
Forced : No

Menu
00:00:00.000 : en:00:00:00.000
00:06:37.022 : en:00:06:37.022
00:13:25.596 : en:00:13:25.596
00:19:28.084 : en:00:19:28.084
00:29:34.898 : en:00:29:34.898
00:35:17.198 : en:00:35:17.198
00:41:29.404 : en:00:41:29.404
00:50:35.824 : en:00:50:35.824
01:01:01.408 : en:01:01:01.408
01:07:53.945 : en:01:07:53.945
01:22:20.394 : en:01:22:20.394
01:24:57.009 : en:01:24:57.009
01:30:19.414 : en:01:30:19.414





1 个附件 售价 大小 下载 时间

Tibetan.Dog.2011.1080p.BluRay.x264-HAiKU.torrent 0 金币 131.68K 434 次 28天前

#1楼
发帖时间:2019-08-20 02:40:06   |   回复数:4
tanchoohoon
武林盟主
感谢楼主的无私分享
28天前 #2楼
911degrees
隐世仙人♂
非常感谢,谢谢分享
27天前 #3楼
liyouchai
隐世仙人♂
谢谢楼主分享资源
27天前 #4楼
chulps
一代宗师
ddd
27天前 #5楼
游客组