conanlcg
超级版主

[2011] [其他] [剧情] [WEB-720P] 火车上的男人/美版火车上的男人 Man.on.the.Train.2011.720p.WEBRip.x264-ASSOCiATE 0.99GB

-->

帖子完整标题:火车上的男人/美版火车上的男人 Man.on.the.Train.2011.720p.WEBRip.x264-ASSOCiATE 0.99GB




◎译  名 火车上的男人 / 美版火车上的男人
◎片  名 Man on the Train
◎年  代 2011
◎产  地 加拿大 / 爱尔兰
◎类  别 剧情
◎语  言 英语
◎上映日期 2011-10-28(美国)
◎IMDb评分 5.5/10 from 602 users
◎IMDb链接 http://www.imdb.com/title/tt1646922
◎豆瓣评分 0/10 from 0 users
◎豆瓣链接 https://movie.douban.com/subject/5152666/
◎片  长 100分钟
◎导  演 Mary McGuckian
◎主  演 唐纳德·萨瑟兰 Donald Sutherland
      格雷厄姆·格林 Graham Greene
      卡尔洛·罗塔 Carlo Rota
      Larry Mullen Jr.
      Tony Nardi
      Greg Bryk
      Kennedy McGuckian
      Martin Katz
      Samuel C. Jephcott
      Shawn Storer


◎标  签 美国 | 剧情 | 美国电影 | 2011 | 加拿大 | 友情 | 爱尔兰 | 男人

◎简  介

  A mysterious criminal rolls into a small town planning to knock off the local bank, assuming it will go off without a hitch. But when he encounters a retired poetry professor, his plans take an unlikely turn. With no place to stay, the professor generously welcomes him into his home. As the two men talk, a bond forms between these two polar opposites, and surprising moments of humor and compassion emerge. As they begin to understand each other more, they each examine the choices they've made in their lives, secretly longing to live the type of lifestyle the other man has lived, based on the desire to escape their own.
Video
ID : 1
Format : AVC
Format/Info : Advanced Video Codec
Format profile : [email protected]
Format settings : CABAC / 5 Ref Frames
Format settings, CABAC : Yes
Format settings, Reference frames : 5 frames
Codec ID : V_MPEG4/ISO/AVC
Duration : 1 h 40 min
Bit rate : 1 285 kb/s
Width : 1 280 pixels
Height : 544 pixels
Display aspect ratio : 2.35:1
Frame rate mode : Constant
Frame rate : 23.976 (24000/1001) FPS
Color space : YUV
Chroma subsampling : 4:2:0
Bit depth : 8 bits
Scan type : Progressive
Bits/(Pixel*Frame) : 0.077
Stream size : 920 MiB (91%)
Writing library : x264 core 158 r2984 3759fcb
Encoding settings : cabac=1 / ref=5 / deblock=1:-3:-3 / analyse=0x3:0x113 / me=hex / subme=8 / psy=1 / psy_rd=1.00:0.15 / mixed_ref=1 / me_range=16 / chroma_me=1 / trellis=2 / 8x8dct=1 / cqm=0 / deadzone=21,11 / fast_pskip=1 / chroma_qp_offset=-3 / threads=6 / lookahead_threads=1 / sliced_threads=0 / nr=0 / decimate=1 / interlaced=0 / bluray_compat=0 / constrained_intra=0 / bframes=3 / b_pyramid=2 / b_adapt=1 / b_bias=0 / direct=3 / weightb=1 / open_gop=0 / weightp=2 / keyint=250 / keyint_min=23 / scenecut=40 / intra_refresh=0 / rc_lookahead=50 / rc=crf / mbtree=1 / crf=18.0 / qcomp=0.60 / qpmin=0 / qpmax=69 / qpstep=4 / vbv_maxrate=17500 / vbv_bufsize=17500 / crf_max=0.0 / nal_hrd=none / filler=0 / ip_ratio=1.40 / aq=1:0.60
Default : Yes
Forced : No
Color range : Limited
Matrix coefficients : BT.709

Audio
ID : 2
Format : AAC LC
Format/Info : Advanced Audio Codec Low Complexity
Codec ID : A_AAC-2
Duration : 1 h 40 min
Bit rate : 126 kb/s
Channel(s) : 2 channels
Channel layout : L R
Sampling rate : 44.1 kHz
Frame rate : 43.066 FPS (1024 SPF)
Compression mode : Lossy
Stream size : 90.0 MiB (9%)
Language : English
Default : Yes
Forced : No

Text
ID : 3
Format : UTF-8
Codec ID : S_TEXT/UTF8
Codec ID/Info : UTF-8 Plain Text
Duration : 1 h 36 min
Bit rate : 51 b/s
Count of elements : 2033
Stream size : 36.7 KiB (0%)
Language : English
Default : No
Forced : No





1 个附件 售价 大小 下载 时间

Man.on.the.Train.2011.720p.WEBRip.x264-ASSOCiATE.torrent 0 金币 20.50K 231 次 1月前

#1楼
发帖时间:2019-08-20 15:05:31   |   回复数:4
tanchoohoon
武林盟主
感谢楼主的无私分享
1月前 #2楼
911degrees
隐世仙人♂
非常感谢,谢谢分享
1月前 #3楼
liyouchai
隐世仙人♂
谢谢楼主分享资源
1月前 #4楼
chulps
一代宗师
ddd
1月前 #5楼
游客组