conanlcg
超级版主

[2011] [欧美] [剧情] [BD-1080P] 养子 Foster.2011.1080p.BluRay.x264-aAF 6.56GB

-->

帖子完整标题:养子 Foster.2011.1080p.BluRay.x264-aAF 6.56GB




◎译  名 养子 / Angel in the House
◎片  名 Foster
◎年  代 2011
◎产  地 英国
◎类  别 剧情 / 喜剧 / 家庭
◎语  言 英语
◎IMDb评分 6.9/10 from 2573 users
◎IMDb链接 http://www.imdb.com/title/tt1629443
◎豆瓣评分 7.3/10 from 345 users
◎豆瓣链接 https://movie.douban.com/subject/4827184/
◎片  长 87分钟
◎导  演 Jonathan Newman
◎编  剧 Jonathan Newman
◎主  演 Maurice Cole
      Toni Collette
      Ioan Gruffudd


◎标  签 英国 | 温情 | 家庭 | 喜剧 | 英国电影 | 剧情 | 2011 | 暖心

◎简  介

  佐伊(托妮·科莱特 Toni Collette 饰)和亚力克(艾恩·格拉法德 Ioan Gruffudd 饰)结婚多年,但是因为佐伊无法怀孕,所以两人迟迟都没有孩子,这成为了这个家庭一个无法愈合的伤口。夫妻两人来到领养机构登记,想要领养一个孩子,几天之后,一个名为伊莱(Maurice Cole 饰)的七岁小男孩带着他的行李箱敲响了佐伊家的房门。
  就这样,伊莱成为了佐伊和亚力克的孩子,但是夫妻两人之间岌岌可危的关系却并没有因为伊莱的到来而有所缓和。聪明的伊莱察觉到了家庭里微妙的气氛,于是开始着手修复养父母之间的关系。在伊莱的调解之下,佐伊和亚力克消解了心结,但之后他们发现,伊莱的身份并没有他们想象的那么简单。
Video
ID : 2
Format : AVC
Format/Info : Advanced Video Codec
Format profile : [email protected]
Format settings : CABAC / 4 Ref Frames
Format settings, CABAC : Yes
Format settings, Reference frames : 4 frames
Codec ID : V_MPEG4/ISO/AVC
Duration : 1 h 26 min
Bit rate : 10.2 Mb/s
Width : 1 920 pixels
Height : 1 080 pixels
Display aspect ratio : 16:9
Frame rate mode : Constant
Frame rate : 25.000 FPS
Color space : YUV
Chroma subsampling : 4:2:0
Bit depth : 8 bits
Scan type : Progressive
Bits/(Pixel*Frame) : 0.197
Stream size : 6.04 GiB (92%)
Writing library : x264 core 122 r2184 5c85e0a
Encoding settings : cabac=1 / ref=4 / deblock=1:0:0 / analyse=0x3:0x133 / me=umh / subme=8 / psy=1 / psy_rd=1.00:0.00 / mixed_ref=1 / me_range=16 / chroma_me=1 / trellis=1 / 8x8dct=1 / cqm=0 / deadzone=21,11 / fast_pskip=0 / chroma_qp_offset=-2 / threads=12 / sliced_threads=0 / nr=0 / decimate=1 / interlaced=0 / bluray_compat=0 / constrained_intra=0 / bframes=3 / b_pyramid=2 / b_adapt=1 / b_bias=0 / direct=1 / weightb=1 / open_gop=0 / weightp=2 / keyint=250 / keyint_min=25 / scenecut=40 / intra_refresh=0 / rc_lookahead=40 / rc=2pass / mbtree=1 / bitrate=10204 / ratetol=1.0 / qcomp=0.60 / qpmin=0 / qpmax=69 / qpstep=4 / cplxblur=20.0 / qblur=0.5 / ip_ratio=1.40 / aq=1:1.00
Language : English
Default : Yes
Forced : No

Audio
ID : 1
Format : AC-3
Format/Info : Audio Coding 3
Commercial name : Dolby Digital
Codec ID : A_AC3
Duration : 1 h 26 min
Bit rate mode : Constant
Bit rate : 640 kb/s
Channel(s) : 6 channels
Channel layout : L R C LFE Ls Rs
Sampling rate : 48.0 kHz
Frame rate : 31.250 FPS (1536 SPF)
Bit depth : 16 bits
Compression mode : Lossy
Stream size : 396 MiB (6%)
Service kind : Complete Main
Default : Yes
Forced : No





1 个附件 售价 大小 下载 时间

Foster.2011.1080p.BluRay.x264-aAF.torrent 0 金币 33.30K 357 次 1月前

#1楼
发帖时间:2019-08-22 15:57:56   |   回复数:3
tanchoohoon
武林盟主
感谢楼主的无私分享
1月前 #2楼
911degrees
隐世仙人♂
非常感谢,谢谢分享
1月前 #3楼
liyouchai
隐世仙人♂
谢谢楼主分享资源
1月前 #4楼
游客组