conanlcg
超级版主

[2016] [韩国] [恐怖] [WEB-1080P] 恐怖故事3:火星来的少女 Horror.Stories.3.2016.SUBBED.1080p.AMZN.WEBRip.DDP2.0.x264-ARiN 4.6

-->

帖子完整标题:恐怖故事3:火星来的少女 Horror.Stories.3.2016.SUBBED.1080p.AMZN.WEBRip.DDP2.0.x264-ARiN 4.68GB




◎译  名 恐怖故事3:火星来的少女 / Horror Stories III / 恐怖故事3
◎片  名 ??? ??? 3 : ???? ? ??
◎年  代 2016
◎产  地 韩国
◎类  别 恐怖
◎语  言 韩语
◎上映日期 2016-06-02(韩国)
◎IMDb评分 5.2/10 from 77 users
◎IMDb链接 http://www.imdb.com/title/tt6449358
◎豆瓣评分 4.8/10 from 1019 users
◎豆瓣链接 https://movie.douban.com/subject/26657438/
◎片  长 94分钟
◎导  演 白承彬 Seung-bin Baek / 金宣 Sun Kim / 金曲 Gok Kim / 闵奎东 Kyu-Dong Min
◎编  剧 白承彬 Seung-bin Baek / 金宣 Sun Kim / 金曲 Gok Kim
◎主  演 任瑟雍 Seulong Lim
      庆收真 Soo-Jin Kyung
      朴正民 Jeong-min Park
      洪恩熙 Eun-hee Hong


◎标  签 恐怖 | 韩国 | 惊悚 | 韩国电影 | 恐怖片 | 2016 | 电影 | 科幻

◎简  介

  由连续并相互构陷的恐怖元素和花絮构成。此次《恐怖故事3》跨越时间将故事呈现,“过去”设置在恐怖故事“狐狸窟”,“现在”聚焦在路怒症Road Rage,“未来”段落围绕人工智能“机械力”。向观众展现不同的元素,释放不同恐怖刺激时本片的内容和目标。
Video
ID : 1
Format : AVC
Format/Info : Advanced Video Codec
Format profile : [email protected]
Format settings : CABAC / 4 Ref Frames
Format settings, CABAC : Yes
Format settings, Reference frames : 4 frames
Codec ID : V_MPEG4/ISO/AVC
Duration : 1 h 30 min
Bit rate mode : Constant
Bit rate : 7 162 kb/s
Nominal bit rate : 10 000 kb/s
Width : 1 920 pixels
Height : 1 080 pixels
Display aspect ratio : 16:9
Frame rate mode : Constant
Frame rate : 23.976 (24000/1001) FPS
Color space : YUV
Chroma subsampling : 4:2:0
Bit depth : 8 bits
Scan type : Progressive
Bits/(Pixel*Frame) : 0.144
Stream size : 4.54 GiB (97%)
Default : Yes
Forced : No
Color range : Limited
Color primaries : BT.709
Transfer characteristics : BT.709
Matrix coefficients : BT.709

Audio
ID : 2
Format : E-AC-3
Format/Info : Enhanced AC-3
Commercial name : Dolby Digital Plus
Codec ID : A_EAC3
Duration : 1 h 30 min
Bit rate mode : Constant
Bit rate : 224 kb/s
Channel(s) : 2 channels
Channel layout : L R
Sampling rate : 48.0 kHz
Frame rate : 31.250 FPS (1536 SPF)
Compression mode : Lossy
Stream size : 145 MiB (3%)
Service kind : Complete Main
Default : Yes
Forced : No

Text
ID : 3
Format : UTF-8
Codec ID : S_TEXT/UTF8
Codec ID/Info : UTF-8 Plain Text
Duration : 1 h 25 min
Bit rate : 7 b/s
Count of elements : 278
Stream size : 4.51 KiB (0%)
Title : English SDH
Language : English
Default : No
Forced : No





1 个附件 售价 大小 下载 时间

Horror.Stories.3.2016.SUBBED.1080p.AMZN.WEBRip.DDP2.0.x264-ARiN.torrent 0 金币 47.40K 826 次 23天前

#1楼
发帖时间:2019-08-25 03:58:50   |   回复数:4
chulps
一代宗师
~ 感谢分享 ~ 感谢 ~
23天前 #2楼
kola13
一派掌门
感谢分享
23天前 #3楼
liyouchai
隐世仙人♂
谢谢楼主分享资源
22天前 #4楼
911degrees
隐世仙人♂
非常感谢,谢谢分享
22天前 #5楼
游客组