conanlcg
超级版主

[更 早] [欧美] [剧情] [BD-1080P] 底层生活/群氓 Riff.Raff.1991.1080p.BluRay.x264-PHOBOS 6.56GB

-->

帖子完整标题:底层生活/群氓 Riff.Raff.1991.1080p.BluRay.x264-PHOBOS 6.56GB




◎译  名 底层生活 / 群氓
◎片  名 Riff-Raff
◎年  代 1991
◎产  地 英国
◎类  别 剧情 / 喜剧
◎语  言 英语
◎上映日期 1991-06-21
◎IMDb评分 7.1/10 from 3719 users
◎IMDb链接 http://www.imdb.com/title/tt0100491
◎豆瓣评分 7.2/10 from 101 users
◎豆瓣链接 https://movie.douban.com/subject/1295364/
◎片  长 95 分钟
◎导  演 Ken Loach
◎编  剧 Bill Jesse
◎主  演 Robert Carlyle
      Emer McCourt
      Richard Belgrave
      Jim R. Coleman


◎标  签 英国 | 英国电影 | 肯·洛奇 | KenLoach | Ken_Loach | 1990s | 黑色 | 1991

◎简  介

  生活在大都会底层的人们忍受着微薄的工资,为了糊口而辛勤出卖劳力,有些人甚至连个睡觉的地方都没有,史特维就是个鲜明例子。他在出狱后从北部的格拉斯哥到伦敦找工作,结果在建筑工地找到了一份临时工。里班米克是个霸道的家伙,工人们得乖乖听命。史特维深感在伦敦讨生活很不容易。一天他在上班途中捡到一个手提袋,因而认识想一圆歌星梦的苏珊,但在现实生活中她是个失业而又喝药的失败者。

◎获奖情况

  第44届戛纳电影节(1991)
  费比西奖 肯·洛奇
Video
ID : 1
Format : AVC
Format/Info : Advanced Video Codec
Format profile : [email protected]
Format settings : CABAC / 4 Ref Frames
Format settings, CABAC : Yes
Format settings, Reference frames : 4 frames
Codec ID : V_MPEG4/ISO/AVC
Duration : 1 h 35 min
Bit rate : 9 013 kb/s
Width : 1 440 pixels
Height : 1 080 pixels
Display aspect ratio : 4:3
Frame rate mode : Constant
Frame rate : 24.000 FPS
Color space : YUV
Chroma subsampling : 4:2:0
Bit depth : 8 bits
Scan type : Progressive
Bits/(Pixel*Frame) : 0.241
Stream size : 6.04 GiB (92%)
Writing library : x264 core 146 r2538 121396c
Encoding settings : cabac=1 / ref=4 / deblock=1:0:0 / analyse=0x3:0x133 / me=umh / subme=8 / psy=1 / psy_rd=1.00:0.00 / mixed_ref=1 / me_range=16 / chroma_me=1 / trellis=1 / 8x8dct=1 / cqm=0 / deadzone=21,11 / fast_pskip=0 / chroma_qp_offset=-2 / threads=12 / lookahead_threads=2 / sliced_threads=0 / nr=0 / decimate=1 / interlaced=0 / bluray_compat=0 / constrained_intra=0 / bframes=3 / b_pyramid=2 / b_adapt=1 / b_bias=0 / direct=1 / weightb=1 / open_gop=0 / weightp=2 / keyint=250 / keyint_min=24 / scenecut=40 / intra_refresh=0 / rc_lookahead=40 / rc=2pass / mbtree=1 / bitrate=9013 / ratetol=1.0 / qcomp=0.60 / qpmin=0 / qpmax=69 / qpstep=4 / cplxblur=20.0 / qblur=0.5 / ip_ratio=1.40 / aq=1:1.00
Language : English
Default : Yes
Forced : No

Audio
ID : 2
Format : DTS
Format/Info : Digital Theater Systems
Codec ID : A_DTS
Duration : 1 h 35 min
Bit rate mode : Constant
Bit rate : 768 kb/s
Channel(s) : 1 channel
Channel layout : C
Sampling rate : 48.0 kHz
Frame rate : 93.750 FPS (512 SPF)
Bit depth : 24 bits
Compression mode : Lossy
Stream size : 527 MiB (8%)
Language : English
Default : Yes
Forced : No





1 个附件 售价 大小 下载 时间

Riff.Raff.1991.1080p.BluRay.x264-PHOBOS.torrent 0 金币 33.29K 385 次 10天前

#1楼
发帖时间:2019-09-11 18:47:25   |   回复数:2
liyouchai
隐世仙人♂
谢谢楼主分享资源
10天前 #2楼
911degrees
隐世仙人♂
非常感谢,谢谢分享
9天前 #3楼
游客组