conanlcg
超级版主

[2019] [欧美] [剧情] [WEB-1080P] 心琴调音师 The.Sound.Of.Silence.2019.1080p.WEBRip.x264-RARBG 1.67GB

-->

帖子完整标题:心琴调音师 The.Sound.Of.Silence.2019.1080p.WEBRip.x264-RARBG 1.67GB




◎译  名 心琴调音师
◎片  名 The Sound of Silence
◎年  代 2019
◎产  地 美国
◎类  别 剧情
◎语  言 英语
◎上映日期 2019-01-26(圣丹斯电影节) / 2019-09-13(美国)
◎IMDb评分 5.6/10 from 90 users
◎IMDb链接 http://www.imdb.com/title/tt9352926
◎豆瓣评分 0/10 from 0 users
◎豆瓣链接 https://movie.douban.com/subject/30390698/
◎片  长 85分钟
◎导  演 Michael Tyburski
◎编  剧 Ben Nabors / Michael Tyburski
◎主  演 拉什达·琼斯 Rashida Jones
      彼得·萨斯加德 Peter Sarsgaard
      托尼·雷沃罗利 Tony Revolori
      奥斯汀·潘德尔顿 Austin Pendleton
      凯特·林恩·希尔 Kate Lyn Sheil
      亚历克斯·卡普夫斯基 Alex Karpovsky
      布鲁斯·奥尔特曼 Bruce Altman
      特雷西·齐默 Tracee Chimo
      多夫·蒂芬巴奇 Dov Tiefenbach
      蒂娜·本科 Tina Benko
      Alison Fraser
      巴威石·帕特尔 Bhavesh Patel
      Chet Siegel


◎标  签 美国 | 声音 | 上影节 | SFF2019 | 2019 | 剧情 | 电影节 | 独立

◎简  介

  人们都说,纽约是个不夜城,但彼得·卢西恩认为自己有办法解决纽约人的失眠问题。彼得并不是一名真正的科学家,而是一个所谓的“家庭调音师”。他认为,各种各样的噪音是他的顾客们压力重重、内心焦虑的罪魁祸首。因此,就像某种专攻声音的风水大师一样,这位独行侠走访一个个烦躁的都市人,来到他们的家中,试图寻找是什么样的噪音在影响他们的生活和心理状态。影响人们睡眠的,也许是冰箱工作时的嗡嗡声,或者是地板发出的吱吱声,也可能是烤面包机的声音……

◎获奖情况

  第35届圣丹斯电影节(2019)
  评审团大奖 剧情片(提名)
Video
ID : 1
Format : AVC
Format/Info : Advanced Video Codec
Format profile : [email protected]
Format settings : CABAC / 4 Ref Frames
Format settings, CABAC : Yes
Format settings, Reference frames : 4 frames
Codec ID : avc1
Codec ID/Info : Advanced Video Coding
Duration : 1 h 27 min
Bit rate : 2 500 kb/s
Width : 1 920 pixels
Height : 952 pixels
Display aspect ratio : 2.017
Frame rate mode : Constant
Frame rate : 23.976 (23976/1000) FPS
Color space : YUV
Chroma subsampling : 4:2:0
Bit depth : 8 bits
Scan type : Progressive
Bits/(Pixel*Frame) : 0.057
Stream size : 1.53 GiB (92%)
Writing library : x264 core 152 r2851M ba24899
Encoding settings : cabac=1 / ref=4 / deblock=1:-1:-1 / analyse=0x3:0x113 / me=umh / subme=9 / psy=1 / psy_rd=1.00:0.15 / mixed_ref=1 / me_range=24 / chroma_me=1 / trellis=2 / 8x8dct=1 / cqm=0 / deadzone=21,11 / fast_pskip=1 / chroma_qp_offset=-3 / threads=16 / lookahead_threads=4 / sliced_threads=0 / nr=0 / decimate=1 / interlaced=0 / bluray_compat=0 / constrained_intra=0 / bframes=3 / b_pyramid=2 / b_adapt=2 / b_bias=0 / direct=3 / weightb=1 / open_gop=0 / weightp=2 / keyint=250 / keyint_min=25 / scenecut=40 / intra_refresh=0 / rc_lookahead=50 / rc=2pass / mbtree=1 / bitrate=2500 / ratetol=1.0 / qcomp=0.60 / qpmin=0 / qpmax=69 / qpstep=4 / cplxblur=20.0 / qblur=0.5 / vbv_maxrate=31250 / vbv_bufsize=31250 / nal_hrd=none / filler=0 / ip_ratio=1.40 / aq=3:1.00
Encoded date : UTC 2019-09-13 05:59:02
Tagged date : UTC 2019-09-13 05:59:02
Codec configuration box : avcC

Audio
ID : 2
Format : AAC LC
Format/Info : Advanced Audio Codec Low Complexity
Codec ID : mp4a-40-2
Duration : 1 h 27 min
Bit rate mode : Constant
Bit rate : 224 kb/s
Channel(s) : 6 channels
Channel layout : C L R Ls Rs LFE
Sampling rate : 48.0 kHz
Frame rate : 46.875 FPS (1024 SPF)
Compression mode : Lossy
Stream size : 140 MiB (8%)
Language : English
Default : Yes
Alternate group : 1
Encoded date : UTC 2019-09-13 05:59:02
Tagged date : UTC 2019-09-13 05:59:02





1 个附件 售价 大小 下载 时间

The.Sound.Of.Silence.2019.1080p.WEBRip.x264-RARBG.torrent 0 金币 17.28K 280 次 1月前

#1楼
发帖时间:2019-09-13 16:38:24   |   回复数:2
liyouchai
隐世仙人♂
谢谢楼主分享资源
1月前 #2楼
911degrees
隐世仙人♂
非常感谢,谢谢分享
1月前 #3楼
游客组