conanlcg
超级版主

[更 早] [欧美] [惊悚] [BD-1080P] 尖叫的头骨 The.Screaming.Skull.1958.1080p.BluRay.x264-LATENCY 5.47GB

-->

帖子完整标题:尖叫的头骨 The.Screaming.Skull.1958.1080p.BluRay.x264-LATENCY 5.47GB




◎译  名 尖叫的头骨
◎片  名 The Screaming Skull
◎年  代 1958
◎产  地 美国
◎类  别 惊悚 / 恐怖
◎语  言 英语
◎上映日期 1958-01(美国)
◎IMDb评分 3.7/10 from 2814 users
◎IMDb链接 http://www.imdb.com/title/tt0052169
◎豆瓣评分 0/10 from 0 users
◎豆瓣链接 https://movie.douban.com/subject/2362646/
◎片  长 68 分钟
◎导  演 Alex Nicol
◎主  演 John Hudson
      Peggy Webber
      Russ Conway


◎标  签 美国 | 恐怖 | 惊悚 | 1958 | BDMV | 美国电影 | 国外电影 | 不是默片

◎简  介

  The film opens with a narrated disclaimer over footage of an opening coffin. The narrator explains that the film's climax is so terrifying that it may kill the viewer, and reassures the audience that if they die of fright while watching the film, they will receive a free burial service, and it closes on the casket which has a card inside reading "Reserved for You."[1]
  Newlyweds Jenni (Peggy Webber) and Eric (John Hudson) move into Eric's palatial country home. Jenni is Eric's second wife; his first wife Marion died when she accidentally slipped and hit her head on the edge of a decorative pond on the estate. At the home they meet Eric's friends, the Reverend Snow (Russ Conway) and his wife (Toni Johnson), as well as Mickey (Alex Nicol), the developmentally disabled gardener. Eric privately mentions to the Snows that Jenni spent time in an asylum following the sudden death of both her parents, and Mrs. Snow reveals that Jenni is very wealthy.
  Jenni is disturbed both by Mickey's belief that Marion's ghost wanders the estate and by Marion's self-portrait inside the house, which Jenni believes resembles her mother. When she begins to hear unexplained screaming noises and see skulls around her house, she believes that Marion is haunting her. Though Eric speculates to Jenni that Mickey, who was a childhood friend of Marion and thus dislikes Jenni, may be behind the trickery, Jenni worries that she is going insane. Eric then suggests to remove Marion's self-portrait from the home. Eric and Jenni take the painting outside and burn it. While they clean up the remains of the painting, a skull emerges from the ashes. While Jenni panics at the sight of the skull, Eric denies that the skull is there. Jenni faints and Eric withdraws the skull and hides it, revealing that he was responsible for the trickery all along in an effort to get hold of her wealth.
  Believing she has finally lost her sanity, Jenni resolves to be committed. She tells Eric that the entire property will be meticulously searched for the skull as a last resort. Before Eric can retrieve it, Mickey secretly steals the skull and brings it to the Reverend, revealing Eric's plans. That night, Eric prepares to murder Jenni and stage it as a suicide. Jenni sees Marion's ghost in Mickey's greenhouse and flees back to the house. When she enters, Eric begins throttling her. The ghost then appears and chases Eric outside and about the property; it finally corners and attacks him, drowning him in the decorative pond.
  After Jenni regains consciousness, the Snows arrive. Mrs. Snow comforts a hysterical Jenni and the Reverend discovers Eric's body in the pond. Some undisclosed time later, Jenni and the Snows depart from the house. Reverend Snow declares whether or not Marion's death was an accident will remain a mystery.
Video
ID : 1
Format : AVC
Format/Info : Advanced Video Codec
Format profile : [email protected]
Format settings : CABAC / 4 Ref Frames
Format settings, CABAC : Yes
Format settings, Reference frames : 4 frames
Codec ID : V_MPEG4/ISO/AVC
Duration : 1 h 8 min
Bit rate : 9 975 kb/s
Width : 1 920 pixels
Height : 1 040 pixels
Display aspect ratio : 1.85:1
Frame rate mode : Constant
Frame rate : 23.976 (24000/1001) FPS
Color space : YUV
Chroma subsampling : 4:2:0
Bit depth : 8 bits
Scan type : Progressive
Bits/(Pixel*Frame) : 0.208
Stream size : 4.75 GiB (87%)
Writing library : x264 core 157 r2969 d4099dd
Encoding settings : cabac=1 / ref=4 / deblock=1:0:0 / analyse=0x3:0x113 / me=umh / subme=8 / psy=1 / psy_rd=1.00:0.00 / mixed_ref=1 / me_range=16 / chroma_me=1 / trellis=2 / 8x8dct=1 / cqm=0 / deadzone=21,11 / fast_pskip=0 / chroma_qp_offset=-2 / threads=32 / lookahead_threads=5 / sliced_threads=0 / nr=0 / decimate=1 / interlaced=0 / bluray_compat=0 / constrained_intra=0 / bframes=3 / b_pyramid=2 / b_adapt=1 / b_bias=0 / direct=3 / weightb=1 / open_gop=0 / weightp=2 / keyint=250 / keyint_min=23 / scenecut=40 / intra_refresh=0 / rc_lookahead=50 / rc=2pass / mbtree=1 / bitrate=9975 / ratetol=1.0 / qcomp=0.60 / qpmin=0 / qpmax=69 / qpstep=4 / cplxblur=20.0 / qblur=0.5 / ip_ratio=1.40 / aq=1:1.00
Default : Yes
Forced : No

Audio
ID : 2
Format : DTS
Format/Info : Digital Theater Systems
Codec ID : A_DTS
Duration : 1 h 8 min
Bit rate mode : Constant
Bit rate : 1 509 kb/s
Channel(s) : 2 channels
Channel layout : L R
Sampling rate : 48.0 kHz
Frame rate : 93.750 FPS (512 SPF)
Bit depth : 24 bits
Compression mode : Lossy
Stream size : 735 MiB (13%)
Title : English
Language : English
Default : No
Forced : No

Text
ID : 3
Format : UTF-8
Codec ID : S_TEXT/UTF8
Codec ID/Info : UTF-8 Plain Text
Duration : 1 h 7 min
Bit rate : 45 b/s
Count of elements : 846
Stream size : 22.4 KiB (0%)
Title : English-HI
Language : English
Default : No
Forced : No

Menu
00:00:00.000 : en:Chapter 01
00:04:30.061 : en:Chapter 02
00:10:48.398 : en:Chapter 03
00:17:23.834 : en:Chapter 04
00:22:40.901 : en:Chapter 05
00:28:18.822 : en:Chapter 06
00:34:40.912 : en:Chapter 07
00:39:26.823 : en:Chapter 08
00:45:53.417 : en:Chapter 09
00:52:36.779 : en:Chapter 10
00:57:44.127 : en:Chapter 11
01:03:09.911 : en:Chapter 12





1 个附件 售价 大小 下载 时间

The.Screaming.Skull.1958.1080p.BluRay.x264-LATENCY.torrent 0 金币 28.16K 154 次 11天前

#1楼
发帖时间:2019-10-10 03:16:45   |   回复数:1
911degrees
隐世仙人♂
非常感谢,谢谢分享
7天前 #2楼
游客组