conanlcg
超级版主

[2011] [其他] [喜剧] [BD-1080P] 蔡李佛拳 Choileefat.2011.1080p.BluRay.x264-aBD 6.55GB

-->

帖子完整标题:蔡李佛拳 Choileefat.2011.1080p.BluRay.x264-aBD 6.55GB




◎译  名 Choi Lee Fut / Choileefat / Choy Lee Fut Kung Fu / 蔡李佛拳2010
◎片  名 蔡李佛拳
◎年  代 2011
◎产  地 中国大陆 / 中国香港
◎类  别 喜剧 / 动作
◎语  言 汉语普通话 / 粤语
◎上映日期 2011-05-10(中国大陆)
◎IMDb评分 4.3/10 from 25 users
◎IMDb链接 http://www.imdb.com/title/tt2472668
◎豆瓣评分 3.4/10 from 2615 users
◎豆瓣链接 https://movie.douban.com/subject/4892342/
◎片  长 91分钟
◎导  演 程东 John Ching Tung
◎编  剧 何东
◎主  演 王宝强 Baoqiang Wang
      叶璇 Michelle Ye
      吴孟达 Man Tat Ng
      惠英红 Kara Hui
      黄一飞 Yut Fei Wong
      熊乃瑾 Naijin Xiong
      谢苗 Miu Tse
      徐少强 Norman Chu


◎标  签 喜剧 | 动作 | 中国 | 烂片 | 2011 | 香港 | 大陆 | 搞笑

◎简  介

  热爱武术的青年陈国成(王宝强 饰)从小在美国长大,他一度夺得大学校际拳击冠军。为了取得更高成就,他毅然返回家乡广东新会。谁知刚刚踏上祖国的土地,便遭遇接二连三的倒霉事,先是被人骗去手机,接着又因误会被少女晶晶和其师兄藏龙臭揍一顿,之后更是丢掉所有行李。
  另一方面,国成的老爹陈皮(吴孟达 饰)是蔡李佛拳的掌门人,他一心忙于生意,于是希望接这一机会将掌门之位传给儿子。谁知管家藏洞阴差阳错接回来一个黑人,结果闹出一连串的笑话。此时彷徨街头、无所依靠的国成又再次邂逅晶晶。经过一番解释,所有误会烟消云散。他也开始了新的武术人生……
Video
ID : 1
Format : AVC
Format/Info : Advanced Video Codec
Format profile : [email protected]
Format settings : CABAC / 4 Ref Frames
Format settings, CABAC : Yes
Format settings, ReFrames : 4 frames
Muxing mode : Header stripping
Codec ID : V_MPEG4/ISO/AVC
Duration : 1 h 35 min
Bit rate : 8 312 kb/s
Width : 1 920 pixels
Height : 1 080 pixels
Display aspect ratio : 16:9
Frame rate mode : Constant
Frame rate : 24.000 FPS
Color space : YUV
Chroma subsampling : 4:2:0
Bit depth : 8 bits
Scan type : Progressive
Bits/(Pixel*Frame) : 0.167
Stream size : 5.41 GiB (83%)
Writing library : x264 core 120 r2120 0c7dab9
Encoding settings : cabac=1 / ref=4 / deblock=1:-1:-1 / analyse=0x3:0x113 / me=umh / subme=7 / psy=1 / psy_rd=1.00:0.00 / mixed_ref=1 / me_range=16 / chroma_me=1 / trellis=1 / 8x8dct=1 / cqm=0 / deadzone=21,11 / fast_pskip=1 / chroma_qp_offset=-2 / threads=12 / sliced_threads=0 / nr=0 / decimate=1 / interlaced=0 / bluray_compat=0 / constrained_intra=0 / bframes=3 / b_pyramid=2 / b_adapt=2 / b_bias=0 / direct=3 / weightb=1 / open_gop=0 / weightp=2 / keyint=250 / keyint_min=24 / scenecut=40 / intra_refresh=0 / rc_lookahead=40 / rc=2pass / mbtree=1 / bitrate=8312 / ratetol=1.0 / qcomp=0.60 / qpmin=0 / qpmax=69 / qpstep=4 / cplxblur=20.0 / qblur=0.5 / vbv_maxrate=50000 / vbv_bufsize=50000 / nal_hrd=none / ip_ratio=1.40 / aq=1:1.00
Language : Chinese
Default : Yes
Forced : Yes

Audio
ID : 2
Format : DTS
Format/Info : Digital Theater Systems
Muxing mode : Header stripping
Codec ID : A_DTS
Duration : 1 h 35 min
Bit rate mode : Constant
Bit rate : 1 509 kb/s
Channel(s) : 6 channels
Channel positions : Front: L C R, Side: L R, LFE
Sampling rate : 48.0 kHz
Frame rate : 93.750 FPS (512 SPF)
Bit depth : 16 bits
Compression mode : Lossy
Stream size : 1.01 GiB (15%)
Language : Chinese
Default : Yes
Forced : Yes

Text
ID : 3
Format : UTF-8
Codec ID : S_TEXT/UTF8
Codec ID/Info : UTF-8 Plain Text
Language : English
Default : Yes
Forced : No





1 个附件 售价 大小 下载 时间

Choileefat.2011.1080p.BluRay.x264-aBD.torrent 0 金币 65.97K 532 次 11天前

#1楼
发帖时间:2019-10-10 03:27:00   |   回复数:1
tanchoohoon
武林盟主
感谢楼主的无私分享
10天前 #2楼
游客组