conanlcg
超级版主

[2012] [其他] [剧情] [WEB-1080P] 直到永远 Time.Of.My.Life.2012.SUBBED.1080p.WEBRip.DDP2.0.x264-monkee 4.25GB

-->

帖子完整标题:直到永远 Time.Of.My.Life.2012.SUBBED.1080p.WEBRip.DDP2.0.x264-monkee 4.25GB




◎译  名 直到永远 / Time Of My Life
◎片  名 Tot altijd
◎年  代 2012
◎产  地 比利时
◎类  别 剧情
◎语  言 荷兰语
◎IMDb评分 7.2/10 from 1215 users
◎IMDb链接 https://www.imdb.com/title/tt1919174
◎豆瓣评分 7.0/10 from 29 users
◎豆瓣链接 https://movie.douban.com/subject/3111652/
◎片  长 121分钟
◎导  演 尼克·巴斯阿扎
◎编  剧 尼克·巴斯阿扎 Nic Balthazar
◎主  演 科恩·德·格雷夫


◎标  签 比利时 | 安乐死 | 剧情 | 2012 | 生存的意义 | 歐美電影 | 尊严 | 电影

◎简  介

  《直到永远》里有血浓于水的亲情,有好基友一辈子的友情,有病人关于尊严和死亡的思考,还有为了使安乐死在比利时合法而付出的不懈的努力。
  这是一部改编自比利时第一位接受安乐死的病人马里奥?韦斯特拉特真实经历的电影,跳跃的时间线串联起他的一生,三十九年的一生看上去似乎那么简单。电影从马里奥的青春时代开始,他和好友托马斯同时爱着美丽的姑娘琳恩。很快马里奥在酒吧遇到了另一位女孩,他们恋爱了,他们结婚了,他们生了孩子,他们离婚了,电影以几个蒙太奇的方式快速将故事推入正题。好友托马斯不经意间查处了马里奥的多发性硬化症,一开始这位年轻的政客对比还不以为然。他对生活和未来依旧充满信心,他用勇气和幽默化解一切。虽然他很快知道了这种疾病的威力,但他依旧觉得要过好生命多赐予他的每一天,直到疾病让他失去了自我的能力,他才觉得自己的人生完了,理想完了,未来也完了。与其没有尊严,不快乐的活着,还不如凭自己的意志决定自己的人生,他选择了安乐死。
Video
ID : 1
Format : AVC
Format/Info : Advanced Video Codec
Format profile : [email protected]
Format settings : CABAC / 4 Ref Frames
Format settings, CABAC : Yes
Format settings, Reference frames : 4 frames
Codec ID : V_MPEG4/ISO/AVC
Duration : 2 h 1 min
Bit rate mode : Variable
Bit rate : 4 784 kb/s
Maximum bit rate : 15.0 Mb/s
Width : 1 920 pixels
Height : 816 pixels
Display aspect ratio : 2.35:1
Frame rate mode : Constant
Frame rate : 23.976 (24000/1001) FPS
Color space : YUV
Chroma subsampling : 4:2:0
Bit depth : 8 bits
Scan type : Progressive
Bits/(Pixel*Frame) : 0.127
Stream size : 4.06 GiB (95%)
Writing library : x264 core 148 r2623 d5b2374
Encoding settings : cabac=1 / ref=4 / deblock=1:-1:-1 / analyse=0x3:0x133 / me=umh / subme=9 / psy=1 / psy_rd=1.00:0.15 / mixed_ref=1 / me_range=24 / chroma_me=1 / trellis=2 / 8x8dct=1 / cqm=0 / deadzone=21,11 / fast_pskip=1 / chroma_qp_offset=-3 / threads=25 / lookahead_threads=4 / sliced_threads=0 / nr=150 / decimate=1 / interlaced=0 / bluray_compat=0 / constrained_intra=0 / bframes=8 / b_pyramid=2 / b_adapt=2 / b_bias=0 / direct=3 / weightb=1 / open_gop=0 / weightp=2 / keyint=120 / keyint_min=61 / scenecut=0 / intra_refresh=0 / rc_lookahead=120 / rc=crf / mbtree=1 / crf=18.0 / qcomp=0.60 / qpmin=0 / qpmax=69 / qpstep=4 / vbv_maxrate=15000 / vbv_bufsize=31250 / crf_max=0.0 / nal_hrd=vbr / filler=0 / ip_ratio=1.40 / aq=3:1.00
Default : Yes
Forced : No
Color range : Limited
Color primaries : BT.709
Transfer characteristics : BT.709
Matrix coefficients : BT.709

Audio
ID : 2
Format : E-AC-3
Format/Info : Enhanced AC-3
Commercial name : Dolby Digital Plus
Codec ID : A_EAC3
Duration : 2 h 1 min
Bit rate mode : Constant
Bit rate : 224 kb/s
Channel(s) : 2 channels
Channel layout : L R
Sampling rate : 48.0 kHz
Frame rate : 31.250 FPS (1536 SPF)
Compression mode : Lossy
Stream size : 195 MiB (4%)
Language : English
Service kind : Complete Main
Default : Yes
Forced : No





1 个附件 售价 大小 下载 时间

Time.Of.My.Life.2012.SUBBED.1080p.WEBRip.DDP2.0.x264-monkee.torrent 0 金币 85.66K 217 次 1月前

#1楼
发帖时间:2019-10-23 06:19:33   |   回复数:1
911degrees
隐世仙人♂
非常感谢,谢谢分享
1月前 #2楼
游客组