conanlcg
超级版主

[2019] [欧美] [动作] [BD-720P] 速度与激情:特别行动 Fast.and.Furious.Presents.Hobbs.and.Shaw.2019.720p.BluRay.x264-SPARKS

-->

帖子完整标题:速度与激情:特别行动 Fast.and.Furious.Presents.Hobbs.and.Shaw.2019.720p.BluRay.x264-SPARKS 5.47GB




◎译  名 速度与激情:特别行动 / Hobbs and Shaw / The Fast and the Furious Spinoff / 狂野时速:双雄联盟(港) / 玩命关头:特别行动(台) / 速度与基情(豆友译名) / 速度与激情外传 / 速度与激情衍生片 / 霍布斯与肖
◎片  名 Fast & Furious Presents: Hobbs & Shaw
◎年  代 2019
◎产  地 美国
◎类  别 动作 / 犯罪
◎语  言 英语
◎上映日期 2019-08-02(美国) / 2019-08-23(中国大陆)
◎IMDb评分 6.8/10 from 64451 users
◎IMDb链接 http://www.imdb.com/title/tt6806448
◎豆瓣评分 6.4/10 from 122826 users
◎豆瓣链接 https://movie.douban.com/subject/27163278/
◎片  长 137分钟
◎导  演 大卫·雷奇 David Leitch
◎编  剧 克里斯·摩根 Chris Morgan / 盖瑞·斯科特·汤普森 Gary Scott Thompson / 德鲁·皮尔斯 Drew Pearce
◎主  演 道恩·强森 Dwayne Johnson
      杰森·斯坦森 Jason Statham
      伊德里斯·艾尔巴 Idris Elba
      凡妮莎·柯比 Vanessa Kirby
      艾莎·冈萨雷斯 Eiza González
      海伦·米伦 Helen Mirren
      瑞恩·雷诺兹 Ryan Reynolds
      凯文·哈特 Kevin Hart
      埃迪·马森 Eddie Marsan
      罗曼·雷恩斯 Roman Reigns
      斯蒂芬妮·沃格特 Stephanie Vogt
      维克托里娅·菲斯 Viktorija Faith
      康兰·卡萨尔 Conlan Casal
      海伦娜·福尔摩斯 Helena Holmes
      伯纳多·桑托斯 Bernardo Santos
      露丝·霍洛克斯 Ruth Horrocks
      大卫·穆梅尼 David Mumeni
      马诺伊·阿南德 Manoj Anand
      阿玛尔·阿达蒂亚 Amar Adatia
      朱利安·费罗 Julian Ferro
      丹尼尔·厄根 Daniel Eghan
      拉普洛斯·卡伦福佐斯 Lampros Kalfuntzos
      阿克塞尔·努 Axel Nu
      史蒂夫·莱温顿 Steve Lewington
      安东尼奥·曼奇诺 Antonio Mancino
      斯特拉·斯托克尔 Stella Stocker
      克利夫·柯蒂斯 Cliff Curtis


◎标  签 动作 | 速度与激情:特别行动 | 美国 | 飙车 | 2019 | 犯罪 | 冒险 | 赛车

◎简  介

  一个是美国外交安全局的忠诚特工、身材魁梧的执法者霍布斯(强森饰),一个是前英国军事特工精英、无法无天的恶棍肖(斯坦森饰)。在2015年的《速度与激情7》中首次对峙之后,两人不论言语还是肢体都冲突不断,一直试图打倒对方。
  然而,通过高科技进行了基因增强的无政府主义者布里克斯顿(伊德瑞斯·艾尔巴饰)控制了一种可能永远改变人类命运的不为人知的生化武器,并且还打败了一位大胆优秀又特立独行的军情六处特工(曾出演《王冠》的凡妮莎·科比饰)——她恰好是肖的妹妹,为了扳倒这个世界上唯一可能比他们更厉害的敌人,这两个不共戴天的宿敌不得不联手。
  《速度与激情:特别行动》一片在《速度与激情》系列的宇宙中推开了一扇全新的大门。从洛杉矶到伦敦,从切尔诺贝利的有毒废墟到美丽的南太平洋岛国萨摩亚,本次特别行动席卷全球。
  该片由大卫·雷奇执导(《死侍2》导演),由《速度与激情》系列故事的缔造者克里斯·摩根编剧,摩根、强森、斯坦森和海拉姆·加西亚共同担纲制片。丹尼·加西亚、凯利·麦考密克、 、史蒂文·查斯曼、伊森·史密斯和安斯利·戴维斯担任监制。
Video
ID : 1
Format : AVC
Format/Info : Advanced Video Codec
Format profile : [email protected]
Format settings : CABAC / 5 Ref Frames
Format settings, CABAC : Yes
Format settings, Reference frames : 5 frames
Codec ID : V_MPEG4/ISO/AVC
Duration : 2 h 16 min
Bit rate : 5 080 kb/s
Width : 1 280 pixels
Height : 536 pixels
Display aspect ratio : 2.40:1
Frame rate mode : Constant
Frame rate : 23.976 (24000/1001) FPS
Color space : YUV
Chroma subsampling : 4:2:0
Bit depth : 8 bits
Scan type : Progressive
Bits/(Pixel*Frame) : 0.309
Stream size : 4.85 GiB (89%)
Writing library : x264 core 158 r2984 3759fcb
Encoding settings : cabac=1 / ref=5 / deblock=1:-3:-3 / analyse=0x3:0x113 / me=umh / subme=8 / psy=1 / psy_rd=1.00:0.00 / mixed_ref=1 / me_range=16 / chroma_me=1 / trellis=1 / 8x8dct=1 / cqm=0 / deadzone=21,11 / fast_pskip=1 / chroma_qp_offset=-2 / threads=17 / lookahead_threads=2 / sliced_threads=0 / nr=0 / decimate=1 / interlaced=0 / bluray_compat=0 / constrained_intra=0 / bframes=3 / b_pyramid=2 / b_adapt=1 / b_bias=0 / direct=3 / weightb=1 / open_gop=0 / weightp=2 / keyint=250 / keyint_min=23 / scenecut=40 / intra_refresh=0 / rc_lookahead=50 / rc=2pass / mbtree=1 / bitrate=5080 / ratetol=1.0 / qcomp=0.60 / qpmin=0 / qpmax=69 / qpstep=4 / cplxblur=20.0 / qblur=0.5 / ip_ratio=1.40 / aq=1:1.00
Language : English
Default : Yes
Forced : No

Audio
ID : 2
Format : AC-3
Format/Info : Audio Coding 3
Commercial name : Dolby Digital
Codec ID : A_AC3
Duration : 2 h 16 min
Bit rate mode : Constant
Bit rate : 640 kb/s
Channel(s) : 6 channels
Channel layout : L R C LFE Ls Rs
Sampling rate : 48.0 kHz
Frame rate : 31.250 FPS (1536 SPF)
Bit depth : 16 bits
Compression mode : Lossy
Stream size : 626 MiB (11%)
Language : English
Service kind : Complete Main
Default : Yes
Forced : No





1 个附件 售价 大小 下载 时间

Fast.and.Furious.Presents.Hobbs.and.Shaw.2019.720p.BluRay.x264-SPARKS.torrent 0 金币 28.38K 3227 次 1月前

#1楼
发帖时间:2019-10-25 04:37:28   |   回复数:2
jokingcheung
一代宗师
谢谢分享
1月前 #2楼
911degrees
隐世仙人♂
非常感谢,谢谢分享
1月前 #3楼
游客组