conanlcg
超级版主

[2019] [欧美] [剧情] [BD-720P] 深夜秀/夜深时 Late.Night.2019.720p.BluRay.x264.DTS-FGT 4.98GB

-->

帖子完整标题:深夜秀/夜深时 Late.Night.2019.720p.BluRay.x264.DTS-FGT 4.98GB




◎译  名 深夜秀 / 夜深时
◎片  名 Late Night
◎年  代 2019
◎产  地 美国
◎类  别 剧情 / 喜剧
◎语  言 英语
◎上映日期 2019-01-25(圣丹斯电影节) / 2019-06-07(美国)
◎IMDb评分 6.5/10 from 4780 users
◎IMDb链接 http://www.imdb.com/title/tt6107548
◎豆瓣评分 7.0/10 from 265 users
◎豆瓣链接 https://movie.douban.com/subject/27109401/
◎片  长 102分钟(圣丹斯电影节)
◎导  演 尼萨·加纳特 Nisha Ganatra
◎编  剧 敏迪·卡灵 Mindy Kaling
◎主  演 艾玛·汤普森 Emma Thompson
      敏迪·卡灵 Mindy Kaling
      约翰·利思戈 John Lithgow
      休·丹西 Hugh Dancy
      伊克·巴里霍尔兹 Ike Barinholtz
      梅歌林·艾奇坤沃克 Megalyn Echikunwoke
      艾米·莱安 Amy Ryan
      马克斯·凯塞拉 Max Casella
      保罗·沃尔特·豪泽 Paul Walter Hauser
      瑞德·斯科特 Reid Scott
      丹尼斯·欧哈拉 Denis O'Hare
      费斯·洛根 Faith Logan
      约翰·厄尔利 John Early
      桃乐丝·麦卡锡 Doris McCarthy
      卢克·斯拉特里 Luke Slattery
      格里高利·迈克尔 Gregory Mikell
      Rupak Ginn


◎标  签 喜剧 | 女性 | EmmaThompson | 美国 | 2019 | 脱口秀 | 电影 | 艾玛·汤普森

◎简  介

  艾玛·汤普森、敏迪·卡灵将参演30WEST、FilmNation打造的喜剧[夜深时](Late Night,暂译)。敏迪·卡灵还操刀剧本,尼萨·加纳特(《高玩救未来》)执导。讲述一个即将失去工作的深夜脱口秀主持人(汤普森饰),当她雇用女性作家(卡灵饰)时,她的工作和生活似乎有了转机。该片将于四月展开拍摄。
Video
ID : 1
Format : AVC
Format/Info : Advanced Video Codec
Format profile : [email protected]
Format settings : CABAC / 4 Ref Frames
Format settings, CABAC : Yes
Format settings, Reference frames : 4 frames
Codec ID : V_MPEG4/ISO/AVC
Duration : 1 h 41 min
Bit rate : 5 500 kb/s
Width : 1 280 pixels
Height : 690 pixels
Display aspect ratio : 1.85:1
Original display aspect ratio : 1.85:1
Frame rate mode : Constant
Frame rate : 23.976 (24000/1001) FPS
Color space : YUV
Chroma subsampling : 4:2:0
Bit depth : 8 bits
Scan type : Progressive
Bits/(Pixel*Frame) : 0.260
Stream size : 3.91 GiB (78%)
Title : Late.Night.2019.720p.BluRay.x264.DTS-FGT
Writing library : x264 core 148 r2795M aaa9aa8
Encoding settings : cabac=1 / ref=4 / deblock=1:-2:-2 / analyse=0x3:0x113 / me=umh / subme=9 / psy=1 / psy_rd=1.00:0.15 / mixed_ref=1 / me_range=16 / chroma_me=1 / trellis=2 / 8x8dct=1 / cqm=0 / deadzone=21,11 / fast_pskip=1 / chroma_qp_offset=-3 / threads=24 / lookahead_threads=3 / sliced_threads=0 / nr=0 / decimate=1 / interlaced=0 / bluray_compat=0 / constrained_intra=0 / bframes=3 / b_pyramid=2 / b_adapt=1 / b_bias=0 / direct=3 / weightb=1 / open_gop=0 / weightp=2 / keyint=250 / keyint_min=25 / scenecut=40 / intra_refresh=0 / rc_lookahead=50 / rc=2pass / mbtree=1 / bitrate=5500 / ratetol=1.0 / qcomp=0.60 / qpmin=0 / qpmax=69 / qpstep=4 / cplxblur=20.0 / qblur=0.5 / vbv_maxrate=31250 / vbv_bufsize=31250 / nal_hrd=none / filler=0 / ip_ratio=1.40 / aq=1:1.00
Language : English
Default : Yes
Forced : No

Audio
ID : 2
Format : DTS
Format/Info : Digital Theater Systems
Codec ID : A_DTS
Duration : 1 h 41 min
Bit rate mode : Constant
Bit rate : 1 509 kb/s
Channel(s) : 6 channels
Channel layout : C L R Ls Rs LFE
Sampling rate : 48.0 kHz
Frame rate : 93.750 FPS (512 SPF)
Bit depth : 16 bits
Compression mode : Lossy
Stream size : 1.07 GiB (22%)
Title : Late.Night.2019.720p.BluRay.x264.DTS-FGT
Language : English
Default : Yes
Forced : No

Text
ID : 3
Format : UTF-8
Codec ID : S_TEXT/UTF8
Codec ID/Info : UTF-8 Plain Text
Duration : 1 h 39 min
Bit rate : 104 b/s
Count of elements : 2134
Stream size : 76.1 KiB (0%)
Language : English
Default : Yes
Forced : No

Menu
00:00:00.000 : en:Chapter 1
00:09:51.716 : en:Chapter 2
00:16:43.961 : en:Chapter 3
00:24:45.692 : en:Chapter 4
00:33:04.649 : en:Chapter 5
00:40:45.568 : en:Chapter 6
00:51:39.513 : en:Chapter 7
01:02:18.943 : en:Chapter 8
01:10:30.226 : en:Chapter 9
01:19:15.959 : en:Chapter 10
01:26:09.789 : en:Chapter 11
01:36:31.202 : en:Chapter 12





1 个附件 售价 大小 下载 时间

Late.Night.2019.720p.BluRay.x264.DTS-FGT.torrent 0 金币 50.33K 448 次 1月前

#1楼
发帖时间:2019-11-07 02:44:57   |   回复数:1
911degrees
隐世仙人♂
非常感谢,谢谢分享
1月前 #2楼
游客组