conanlcg
超级版主

[2018] [欧美] [其他] [WEB-1080P] 共济会的秘密 Secrets.of.The.Masons.2018.1080p.AMZN.WEBRip.DDP2.0.x264-GLI 3.82GB

-->

帖子完整标题:共济会的秘密 Secrets.of.The.Masons.2018.1080p.AMZN.WEBRip.DDP2.0.x264-GLI 3.82GB




◎译  名 共济会的秘密
◎片  名 Secrets of The Masons
◎年  代 2018
◎产  地 英国
◎类  别 纪录片
◎语  言 英语
◎上映日期 2018-03-20(英国)
◎IMDb评分 6.1/10 from 11 users
◎IMDb链接 https://www.imdb.com/title/tt8160744
◎豆瓣评分 0/10 from 0 users
◎豆瓣链接 https://movie.douban.com/subject/30176266/
◎片  长 60分钟

◎标  签 纪录片 | BBC | 共济会 | 英国 | 历史 | 苏格兰 | 2018 | 英国电影

◎简  介

  History of the Masons starting with Stone Masons and secrets of Construction, to becoming like the Boy qiwan.cc Scouts for Men of making Men better Men.
Video
ID : 1
Format : AVC
Format/Info : Advanced Video Codec
Format profile : [email protected]
Format settings : CABAC / 4 Ref Frames
Format settings, CABAC : Yes
Format settings, Reference frames : 4 frames
Codec ID : V_MPEG4/ISO/AVC
Duration : 57 min 59 s
Bit rate mode : Constant
Bit rate : 9 210 kb/s
Nominal bit rate : 10 000 kb/s
Width : 1 920 pixels
Height : 1 080 pixels
Display aspect ratio : 16:9
Frame rate mode : Constant
Frame rate : 25.000 FPS
Color space : YUV
Chroma subsampling : 4:2:0
Bit depth : 8 bits
Scan type : Progressive
Bits/(Pixel*Frame) : 0.178
Stream size : 3.73 GiB (98%)
Default : Yes
Forced : No
Color range : Limited
Color primaries : BT.709
Transfer characteristics : BT.709
Matrix coefficients : BT.709

Audio
ID : 2
Format : E-AC-3
Format/Info : Enhanced AC-3
Commercial name : Dolby Digital Plus
Codec ID : A_EAC3
Duration : 57 min 59 s
Bit rate mode : Constant
Bit rate : 224 kb/s
Channel(s) : 2 channels
Channel layout : L R
Sampling rate : 48.0 kHz
Frame rate : 31.250 FPS (1536 SPF)
Compression mode : Lossy
Stream size : 92.9 MiB (2%)
Language : English
Service kind : Complete Main
Default : Yes
Forced : No

Text
ID : 3
Format : UTF-8
Codec ID : S_TEXT/UTF8
Codec ID/Info : UTF-8 Plain Text
Duration : 57 min 20 s
Bit rate : 100 b/s
Count of elements : 1104
Stream size : 42.4 KiB (0%)
Title : SDH
Language : English
Default : Yes
Forced : No





1 个附件 售价 大小 下载 时间

Secrets.of.The.Masons.2018.1080p.AMZN.WEBRip.DDP2.0.x264-GLI.torrent 0 金币 38.78K 497 次 7天前

#1楼
发帖时间:2019-11-08 19:46:23   |   回复数:1
911degrees
隐世仙人♂
非常感谢,谢谢分享
6天前 #2楼
游客组