conanlcg
超级版主

[更 早] [日本] [其他] [BD-1080P] 野猫之性感猎人 Stray.Cat.Rock.Sex.Hunter.1970.JAPANESE.1080p.BluRay.x264.DTS-FGT 7.74GB

-->

帖子完整标题:野猫之性感猎人 Stray.Cat.Rock.Sex.Hunter.1970.JAPANESE.1080p.BluRay.x264.DTS-FGT 7.74GB




◎译  名 野猫之性感猎人 / Nora-neko rokku: Sekkusu hanta / Stray Cat Rock:Sex Hunter / 野猫摇滚:性感猎人 / 野良猫洛克:性感猎人
◎片  名 野良猫ロック セックスハンター
◎年  代 1970
◎产  地 日本
◎类  别 犯罪
◎语  言 日语
◎上映日期 1970-09-01
◎IMDb评分 6.4/10 from 628 users
◎IMDb链接 https://www.imdb.com/title/tt0223783
◎豆瓣评分 6.5/10 from 110 users
◎豆瓣链接 https://movie.douban.com/subject/1858721/
◎片  长 Japan: 85 分钟
◎导  演 长谷部安春
◎编  剧 大和屋竺 / 藤井鹰史
◎主  演 梶芽衣子
      安冈力也
      藤龙也
      冈崎二朗
      英美枝
      小磯マリ
      青木伸子


◎标  签 日本 | 梶芽衣子 | 长谷部安春 | 日本电影 | 1970 | 犯罪 | 1970s | 長谷部安春

◎简  介

  町立川曾为美军基地所在地,当地人一方面西化严重,一方面深受创伤。少女真子(梶芽衣子 饰)与一群小姐妹整日游荡街头,无所事事;而以“男爵”(藤龙也 饰)为首的“老鹰”青年组则驾驶着美军军用吉普横冲直撞,招摇过市。某天,少女组中的女孩玛丽抛弃“老鹰”中的男友,转而爱上一个日美混血儿。拥有着不堪过去的男爵下令驱逐镇上所有的混血儿,一场肃清运动席卷而来。
  来自横滨的混血青年数马(安冈力也 饰)到町立川寻找妹妹小惠,他的歌声感染了内心孤独的真子,而其身份又令男爵恨之入骨。原本相安无事的两组人马剑拔弩张……
Video
ID : 1
Format : AVC
Format/Info : Advanced Video Codec
Format profile : [email protected]
Format settings : CABAC / 4 Ref Frames
Format settings, CABAC : Yes
Format settings, Reference frames : 4 frames
Codec ID : V_MPEG4/ISO/AVC
Duration : 1 h 25 min
Bit rate : 11.5 Mb/s
Width : 1 918 pixels
Height : 770 pixels
Display aspect ratio : 2.491
Frame rate mode : Constant
Frame rate : 23.976 (24000/1001) FPS
Color space : YUV
Chroma subsampling : 4:2:0
Bit depth : 8 bits
Scan type : Progressive
Bits/(Pixel*Frame) : 0.325
Stream size : 6.84 GiB (88%)
Title : Stray.Cat.Rock.Sex.Hunter.1970.JAPANESE.1080p.BluRay.x264.DTS-FGT
Writing library : x264 core 148 r2795M aaa9aa8
Encoding settings : cabac=1 / ref=4 / deblock=1:-2:-2 / analyse=0x3:0x113 / me=umh / subme=9 / psy=1 / psy_rd=1.00:0.15 / mixed_ref=1 / me_range=16 / chroma_me=1 / trellis=2 / 8x8dct=1 / cqm=0 / deadzone=21,11 / fast_pskip=1 / chroma_qp_offset=-3 / threads=24 / lookahead_threads=3 / sliced_threads=0 / nr=0 / decimate=1 / interlaced=0 / bluray_compat=0 / constrained_intra=0 / bframes=3 / b_pyramid=2 / b_adapt=1 / b_bias=0 / direct=3 / weightb=1 / open_gop=0 / weightp=2 / keyint=250 / keyint_min=25 / scenecut=40 / intra_refresh=0 / rc_lookahead=50 / rc=2pass / mbtree=1 / bitrate=11500 / ratetol=1.0 / qcomp=0.60 / qpmin=0 / qpmax=69 / qpstep=4 / cplxblur=20.0 / qblur=0.5 / vbv_maxrate=31250 / vbv_bufsize=31250 / nal_hrd=none / filler=0 / ip_ratio=1.40 / aq=1:1.00
Language : Japanese
Default : Yes
Forced : No

Audio
ID : 2
Format : DTS
Format/Info : Digital Theater Systems
Codec ID : A_DTS
Duration : 1 h 25 min
Bit rate mode : Constant
Bit rate : 1 509 kb/s
Channel(s) : 1 channel
Channel layout : C
Sampling rate : 48.0 kHz
Frame rate : 93.750 FPS (512 SPF)
Bit depth : 16 bits
Compression mode : Lossy
Stream size : 919 MiB (12%)
Title : Stray.Cat.Rock.Sex.Hunter.1970.JAPANESE.1080p.BluRay.x264.DTS-FGT
Language : Japanese
Default : Yes
Forced : No

Text
ID : 3
Format : UTF-8
Codec ID : S_TEXT/UTF8
Codec ID/Info : UTF-8 Plain Text
Duration : 1 h 24 min
Bit rate : 28 b/s
Count of elements : 664
Stream size : 17.5 KiB (0%)
Language : English
Default : Yes
Forced : No

Menu
00:00:00.000 : en:Chapter 1
00:09:26.148 : en:Chapter 2
00:15:28.385 : en:Chapter 3
00:21:09.268 : en:Chapter 4
00:29:21.926 : en:Chapter 5
00:36:50.875 : en:Chapter 6
00:42:38.597 : en:Chapter 7
00:48:00.168 : en:Chapter 8
00:56:59.666 : en:Chapter 9
01:04:03.130 : en:Chapter 10
01:10:37.691 : en:Chapter 11
01:17:33.231 : en:Chapter 12





1 个附件 售价 大小 下载 时间

Stray.Cat.Rock.Sex.Hunter.1970.JAPANESE.1080p.BluRay.x264.DTS-FGT.torrent 0 金币 39.26K 1666 次 10天前

#1楼
发帖时间:2019-11-09 08:52:16   |   回复数:4
911degrees
隐世仙人♂
非常感谢,谢谢分享
10天前 #2楼
tanchoohoon
武林盟主
感谢楼主的无私分享
10天前 #3楼
121076
一派掌门
片很不错,很感谢~
10天前 #4楼
kola13
一派掌门
感谢分享
9天前 #5楼
游客组