coor
武林高手

[2008] [其他] [喜剧] [BD-Remux] 大搜查之女 Lady.Cop.and.Papa.Crook.2008.DC.CHINESE.1080p.BluRay.REMUX.AVC.TrueHD.7.1-

-->

帖子完整标题:大搜查之女 Lady.Cop.and.Papa.Crook.2008.DC.CHINESE.1080p.BluRay.REMUX.AVC.TrueHD.7.1-FGT 17.52GB




◎译  名 Lady Cop & Papa Crook / 大搜查
◎片  名 大搜查之女
◎年  代 2008
◎产  地 中国香港 / 中国大陆
◎类  别 喜剧 / 惊悚 / 犯罪
◎语  言 粤语 / 普通话
◎上映日期 2008-12-24
◎IMDb评分 5.2/10 from 269 users
◎IMDb链接 https://www.imdb.com/title/tt1258130
◎豆瓣评分 5.9/10 from 18728 users
◎豆瓣链接 https://movie.douban.com/subject/3136488/
◎片  长 92分钟
◎导  演 麦兆辉 / 庄文强
◎编  剧 麦兆辉 / 庄文强
◎主  演 郑秀文
      陈奕迅
      张国立
      董勇
      杜汶泽
      叶璇
      徐子珊
      刘浩龙
      任贤齐
      陈子聪
      黄德斌
      谭耀文
      谷祖琳


◎标  签 郑秀文 | 陈奕迅 | 香港电影 | 香港 | 麦兆辉 | 警匪 | 2008 | 电影

◎简  介

  33岁还未结婚的香港女警司徒慕莲(郑秀文饰)一直为自己的婚事发愁。男友十年前的承诺,现在成了她与同事间的笑谈。一日,走私集团的头领霍青松(陈奕迅饰)的儿子被绑架,司徒慕莲奉命处理这宗案件。但霍青松一家为避免因走私之事被警方控告,处处表现出不合作的态度,而此时司徒慕莲发现自己有了身孕。
  黑白两道在一间大屋下貌和神离,霍家上下各自心怀暗计,同时,大陆警方也传来了联合破案的消息。作为“剩女”的司徒慕莲、作为警察的司徒慕莲,她到底能否解决眼前面对的一切?
Video
ID : 1
Format : AVC
Format/Info : Advanced Video Codec
Format profile : [email protected]
Format settings : CABAC / 4 Ref Frames
Format settings, CABAC : Yes
Format settings, Reference frames : 4 frames
Codec ID : V_MPEG4/ISO/AVC
Duration : 1 h 38 min
Bit rate mode : Variable
Bit rate : 20.3 Mb/s
Maximum bit rate : 30.0 Mb/s
Width : 1 920 pixels
Height : 1 080 pixels
Display aspect ratio : 16:9
Frame rate mode : Constant
Frame rate : 24.000 FPS
Standard : PAL
Color space : YUV
Chroma subsampling : 4:2:0
Bit depth : 8 bits
Scan type : Progressive
Bits/(Pixel*Frame) : 0.408
Stream size : 13.9 GiB (79%)
Title : Lady.Cop.and.Papa.Crook.2008.CHINESE.1080p.BluRay.REMUX.AVC.TrueHD.7.1-FGT
Language : English
Default : No
Forced : No
Color range : Limited
Color primaries : BT.709
Transfer characteristics : BT.709
Matrix coefficients : BT.709

Audio #1
ID : 2
Format : MLP FBA
Format/Info : Meridian Lossless Packing FBA
Commercial name : Dolby TrueHD
Codec ID : A_TRUEHD
Duration : 1 h 38 min
Bit rate mode : Variable
Bit rate : 3 214 kb/s
Maximum bit rate : 7 500 kb/s
Channel(s) : 8 channels
Channel layout : L R C LFE Ls Rs Lb Rb
Sampling rate : 48.0 kHz
Frame rate : 1 200.000 FPS (40 SPF)
Compression mode : Lossless
Stream size : 2.21 GiB (13%)
Title : Lady.Cop.and.Papa.Crook.2008.CHINESE.1080p.BluRay.REMUX.AVC.TrueHD.7.1-FGT
Language : Chinese
Default : Yes
Forced : No

Audio #2
ID : 3
Format : AC-3
Format/Info : Audio Coding 3
Commercial name : Dolby Digital
Codec ID : A_AC3
Duration : 1 h 38 min
Bit rate mode : Constant
Bit rate : 640 kb/s
Channel(s) : 6 channels
Channel layout : L R C LFE Ls Rs
Sampling rate : 48.0 kHz
Frame rate : 31.250 FPS (1536 SPF)
Bit depth : 16 bits
Compression mode : Lossy
Stream size : 450 MiB (3%)
Title : Lady.Cop.and.Papa.Crook.2008.CHINESE.1080p.BluRay.REMUX.AVC.TrueHD.7.1-FGT
Language : Chinese
Service kind : Complete Main
Default : No
Forced : No

Audio #3
ID : 4
Format : AC-3
Format/Info : Audio Coding 3
Commercial name : Dolby Digital
Codec ID : A_AC3
Duration : 1 h 38 min
Bit rate mode : Constant
Bit rate : 640 kb/s
Channel(s) : 6 channels
Channel layout : L R C LFE Ls Rs
Sampling rate : 48.0 kHz
Frame rate : 31.250 FPS (1536 SPF)
Bit depth : 16 bits
Compression mode : Lossy
Stream size : 450 MiB (3%)
Title : Lady.Cop.and.Papa.Crook.2008.CHINESE.1080p.BluRay.REMUX.AVC.TrueHD.7.1-FGT
Language : Chinese
Service kind : Complete Main
Default : No
Forced : No

Audio #4
ID : 5
Format : AC-3
Format/Info : Audio Coding 3
Commercial name : Dolby Digital
Codec ID : A_AC3
Duration : 1 h 38 min
Bit rate mode : Constant
Bit rate : 640 kb/s
Channel(s) : 6 channels
Channel layout : L R C LFE Ls Rs
Sampling rate : 48.0 kHz
Frame rate : 31.250 FPS (1536 SPF)
Bit depth : 16 bits
Compression mode : Lossy
Stream size : 450 MiB (3%)
Title : Lady.Cop.and.Papa.Crook.2008.CHINESE.1080p.BluRay.REMUX.AVC.TrueHD.7.1-FGT
Language : Chinese
Service kind : Complete Main
Default : No
Forced : No

Text #1
ID : 6
Format : PGS
Muxing mode : zlib
Codec ID : S_HDMV/PGS
Codec ID/Info : Picture based subtitle format used on BDs/HD-DVDs
Duration : 1 h 34 min
Bit rate : 35.0 kb/s
Count of elements : 2323
Stream size : 23.6 MiB (0%)
Title : English-PGS
Language : English
Default : Yes
Forced : No

Text #2
ID : 7
Format : PGS
Muxing mode : zlib
Codec ID : S_HDMV/PGS
Codec ID/Info : Picture based subtitle format used on BDs/HD-DVDs
Duration : 1 h 32 min
Bit rate : 30.0 kb/s
Count of elements : 2307
Stream size : 20.0 MiB (0%)
Title : Chinese-PGS
Language : Chinese
Default : No
Forced : No

Text #3
ID : 8
Format : PGS
Muxing mode : zlib
Codec ID : S_HDMV/PGS
Codec ID/Info : Picture based subtitle format used on BDs/HD-DVDs
Duration : 1 h 32 min
Bit rate : 28.6 kb/s
Count of elements : 2307
Stream size : 19.0 MiB (0%)
Title : Chinese-PGS
Language : Chinese
Default : No
Forced : No

Menu
00:00:00.000 : en:Chapter 01
00:06:33.666 : en:Chapter 02
00:11:44.000 : en:Chapter 03
00:15:12.000 : en:Chapter 04
00:18:30.000 : en:Chapter 05
00:23:41.875 : en:Chapter 06
00:26:15.750 : en:Chapter 07
00:31:00.000 : en:Chapter 08
00:36:47.791 : en:Chapter 09
00:40:53.000 : en:Chapter 10
00:45:48.000 : en:Chapter 11
00:50:17.916 : en:Chapter 12
00:54:43.958 : en:Chapter 13
01:00:48.875 : en:Chapter 14
01:07:12.625 : en:Chapter 15
01:11:04.875 : en:Chapter 16
01:17:30.000 : en:Chapter 17
01:21:54.958 : en:Chapter 18
01:27:50.708 : en:Chapter 19
01:35:26.000 : en:Chapter 20





1 个附件 售价 大小 下载 时间

Lady.Cop.and.Papa.Crook.2008.DC.CHINESE.1080p.BluRay.REMUX.AVC.TrueHD.7.1-FGT.torrent 0 金币 88.15K 497 次 9天前

#1楼
发帖时间:2019-12-03 11:28:51   |   回复数:2
liyouchai
隐世仙人♂
谢谢楼主分享资源
9天前 #2楼
911degrees
隐世仙人♂
非常感谢,谢谢分享
9天前 #3楼
游客组