coor
武林高手

[更 早] [其他] [剧情] [WEB-1080P] 爱情无色无味/一切由猜疑开始 Lantana.2001.1080p.WEBRip.x264-RARBG 2.30GB

-->

帖子完整标题:爱情无色无味/一切由猜疑开始 Lantana.2001.1080p.WEBRip.x264-RARBG 2.30GB




◎译  名 爱情无色无味 / 一切由猜疑开始 / 连环扣 / 马缨丹
◎片  名 Lantana
◎年  代 2001
◎产  地 澳大利亚 / 德国
◎类  别 剧情 / 爱情 / 悬疑
◎语  言 英语
◎上映日期 2001-10-04
◎IMDb评分 7.2/10 from 17717 users
◎IMDb链接 http://www.imdb.com/title/tt0259393
◎豆瓣评分 7.6/10 from 487 users
◎豆瓣链接 https://movie.douban.com/subject/1303123/
◎片  长 121 分钟
◎导  演 雷·劳伦斯 Ray Lawrence
◎编  剧 安德鲁·伯维尔 Andrew Bovell
◎主  演 安东尼·拉帕格利亚 Anthony LaPaglia
      瑞切尔·布莱克 Rachael Blake
      凯瑞·阿姆斯特朗 Kerry Armstrong
      马努·贝内特 Manu Bennett
      利亚·珀赛尔 Leah Purcell
      芭芭拉·赫希 Barbara Hershey
      杰弗里·拉什 Geoffrey Rush
      Peter Phelps


◎标  签 澳大利亚 | 悬疑 | 澳大利亚电影 | 爱情 | 2001 | 生活 | 惊悚 | 剧情

◎简  介

  莱昂(安东尼·拉帕格利亚 Anthony LaPaglia 饰)人到中年,和妻子索尼娅(凯瑞·阿姆斯特朗 Kerry Armstrong 饰)之间的关系早已经十分疏远,名存实亡。家庭之外,莱昂有着一位交往甚密的情人简(蕾切尔·布雷克 Rachael Blake 饰),在简那里,莱昂能够短暂的找回自信和激情。
  索尼娅察觉到了丈夫的异样,但是她选择将一切的愤怒和痛苦隐藏在心底。心理治疗师瓦莱丽(芭芭拉·赫希 Barbara Hershey 饰)是索尼娅的树洞,常常开导和安危她,可是,瓦莱丽也必须面对自己内心里的黑洞——她的女儿成为了一场谋杀案中的受害者,她至今无法从失去女儿的悲痛之中走出来。某日,瓦莱丽突然失踪了,莱昂对她的下落展开了调查。
Video
ID : 1
Format : AVC
Format/Info : Advanced Video Codec
Format profile : [email protected]
Format settings : CABAC / 4 Ref Frames
Format settings, CABAC : Yes
Format settings, Reference frames : 4 frames
Codec ID : avc1
Codec ID/Info : Advanced Video Coding
Duration : 2 h 0 min
Bit rate : 2 500 kb/s
Width : 1 920 pixels
Height : 1 080 pixels
Display aspect ratio : 16:9
Frame rate mode : Constant
Frame rate : 23.976 (23976/1000) FPS
Color space : YUV
Chroma subsampling : 4:2:0
Bit depth : 8 bits
Scan type : Progressive
Bits/(Pixel*Frame) : 0.050
Stream size : 2.11 GiB (92%)
Writing library : x264 core 152 r2851M ba24899
Encoding settings : cabac=1 / ref=4 / deblock=1:-1:-1 / analyse=0x3:0x113 / me=umh / subme=9 / psy=1 / psy_rd=1.00:0.15 / mixed_ref=1 / me_range=24 / chroma_me=1 / trellis=2 / 8x8dct=1 / cqm=0 / deadzone=21,11 / fast_pskip=1 / chroma_qp_offset=-3 / threads=16 / lookahead_threads=4 / sliced_threads=0 / nr=0 / decimate=1 / interlaced=0 / bluray_compat=0 / constrained_intra=0 / bframes=3 / b_pyramid=2 / b_adapt=2 / b_bias=0 / direct=3 / weightb=1 / open_gop=0 / weightp=2 / keyint=250 / keyint_min=25 / scenecut=40 / intra_refresh=0 / rc_lookahead=50 / rc=2pass / mbtree=1 / bitrate=2500 / ratetol=1.0 / qcomp=0.60 / qpmin=0 / qpmax=69 / qpstep=4 / cplxblur=20.0 / qblur=0.5 / vbv_maxrate=31250 / vbv_bufsize=31250 / nal_hrd=none / filler=0 / ip_ratio=1.40 / aq=3:1.00
Encoded date : UTC 2019-12-03 02:11:06
Tagged date : UTC 2019-12-03 02:11:06
Codec configuration box : avcC

Audio
ID : 2
Format : AAC LC
Format/Info : Advanced Audio Codec Low Complexity
Codec ID : mp4a-40-2
Duration : 2 h 0 min
Bit rate mode : Constant
Bit rate : 224 kb/s
Channel(s) : 6 channels
Channel layout : C L R Ls Rs LFE
Sampling rate : 48.0 kHz
Frame rate : 46.875 FPS (1024 SPF)
Compression mode : Lossy
Stream size : 193 MiB (8%)
Language : English
Default : Yes
Alternate group : 1
Encoded date : UTC 2019-12-03 02:11:06
Tagged date : UTC 2019-12-03 02:11:06





1 个附件 售价 大小 下载 时间

Lantana.2001.1080p.WEBRip.x264-RARBG.torrent 0 金币 23.63K 210 次 11天前

#1楼
发帖时间:2019-12-03 12:01:04   |   回复数:1
911degrees
隐世仙人♂
非常感谢,谢谢分享
10天前 #2楼
游客组