coor
武林高手

[更 早] [其他] [剧情] [WEB-1080P] 爱情无色无味/一切由猜疑开始 Lantana.2001.1080p.AMZN.WEBRip.DDP5.1.x264-alfaHD 11.91GB

-->

帖子完整标题:爱情无色无味/一切由猜疑开始 Lantana.2001.1080p.AMZN.WEBRip.DDP5.1.x264-alfaHD 11.91GB




◎译  名 爱情无色无味 / 一切由猜疑开始 / 连环扣 / 马缨丹
◎片  名 Lantana
◎年  代 2001
◎产  地 澳大利亚 / 德国
◎类  别 剧情 / 爱情 / 悬疑
◎语  言 英语
◎上映日期 2001-10-04
◎IMDb评分 7.2/10 from 17717 users
◎IMDb链接 http://www.imdb.com/title/tt0259393
◎豆瓣评分 7.6/10 from 487 users
◎豆瓣链接 https://movie.douban.com/subject/1303123/
◎片  长 121 分钟
◎导  演 雷·劳伦斯 Ray Lawrence
◎编  剧 安德鲁·伯维尔 Andrew Bovell
◎主  演 安东尼·拉帕格利亚 Anthony LaPaglia
      瑞切尔·布莱克 Rachael Blake
      凯瑞·阿姆斯特朗 Kerry Armstrong
      马努·贝内特 Manu Bennett
      利亚·珀赛尔 Leah Purcell
      芭芭拉·赫希 Barbara Hershey
      杰弗里·拉什 Geoffrey Rush
      Peter Phelps


◎标  签 澳大利亚 | 悬疑 | 澳大利亚电影 | 爱情 | 2001 | 生活 | 惊悚 | 剧情

◎简  介

  莱昂(安东尼·拉帕格利亚 Anthony LaPaglia 饰)人到中年,和妻子索尼娅(凯瑞·阿姆斯特朗 Kerry Armstrong 饰)之间的关系早已经十分疏远,名存实亡。家庭之外,莱昂有着一位交往甚密的情人简(蕾切尔·布雷克 Rachael Blake 饰),在简那里,莱昂能够短暂的找回自信和激情。
  索尼娅察觉到了丈夫的异样,但是她选择将一切的愤怒和痛苦隐藏在心底。心理治疗师瓦莱丽(芭芭拉·赫希 Barbara Hershey 饰)是索尼娅的树洞,常常开导和安危她,可是,瓦莱丽也必须面对自己内心里的黑洞——她的女儿成为了一场谋杀案中的受害者,她至今无法从失去女儿的悲痛之中走出来。某日,瓦莱丽突然失踪了,莱昂对她的下落展开了调查。
Video
ID : 1
Format : AVC
Format/Info : Advanced Video Codec
Format profile : [email protected]
Format settings : CABAC / 4 Ref Frames
Format settings, CABAC : Yes
Format settings, Reference frames : 4 frames
Codec ID : V_MPEG4/ISO/AVC
Duration : 2 h 0 min
Bit rate mode : Variable
Bit rate : 13.5 Mb/s
Maximum bit rate : 15.0 Mb/s
Width : 1 920 pixels
Height : 1 080 pixels
Display aspect ratio : 16:9
Frame rate mode : Constant
Frame rate : 23.976 (24000/1001) FPS
Color space : YUV
Chroma subsampling : 4:2:0
Bit depth : 8 bits
Scan type : Progressive
Bits/(Pixel*Frame) : 0.271
Stream size : 11.4 GiB (95%)
Default : Yes
Forced : No
Color range : Limited
Color primaries : BT.709
Transfer characteristics : BT.709
Matrix coefficients : BT.709

Audio
ID : 2
Format : E-AC-3
Format/Info : Enhanced AC-3
Commercial name : Dolby Digital Plus
Codec ID : A_EAC3
Duration : 2 h 0 min
Bit rate mode : Constant
Bit rate : 640 kb/s
Channel(s) : 6 channels
Channel layout : L R C LFE Ls Rs
Sampling rate : 48.0 kHz
Frame rate : 31.250 FPS (1536 SPF)
Compression mode : Lossy
Stream size : 553 MiB (5%)
Language : English
Service kind : Complete Main
Default : Yes
Forced : No

Text #1
ID : 3
Format : UTF-8
Codec ID : S_TEXT/UTF8
Codec ID/Info : UTF-8 Plain Text
Duration : 1 h 56 min
Bit rate : 40 b/s
Count of elements : 1476
Stream size : 34.7 KiB (0%)
Language : English
Default : No
Forced : No

Text #2
ID : 4
Format : UTF-8
Codec ID : S_TEXT/UTF8
Codec ID/Info : UTF-8 Plain Text
Duration : 1 h 56 min
Bit rate : 44 b/s
Count of elements : 1668
Stream size : 37.5 KiB (0%)
Title : SDH
Language : English
Default : No
Forced : No





1 个附件 售价 大小 下载 时间

Lantana.2001.1080p.AMZN.WEBRip.DDP5.1.x264-alfaHD.torrent 0 金币 60.09K 420 次 11天前

#1楼
发帖时间:2019-12-03 12:26:21   |   回复数:2
tanchoohoon
武林盟主
感谢楼主的无私分享
11天前 #2楼
911degrees
隐世仙人♂
非常感谢,谢谢分享
10天前 #3楼
游客组