coor
武林盟主

[2006] [欧美] [喜剧] [WEB-1080P] 留级之王2 Van.Wilder.2.The.Rise.of.Taj.2006.1080p.AMZN.WEBRip.DDP5.1.x264-pawel2006

-->

帖子完整标题:留级之王2 Van.Wilder.2.The.Rise.of.Taj.2006.1080p.AMZN.WEBRip.DDP5.1.x264-pawel2006 9.80GB




◎译  名 留级之王2 / National Lampoon's Van Wilder: The Rise of Taj / Van Wilder Deux: The Rise of Taj / Van Wilder: The Rise of Taj / 凸种高材生2
◎片  名 Van Wilder: The Rise of Taj
◎年  代 2006
◎产  地 美国
◎类  别 喜剧 / 爱情
◎语  言 英语
◎上映日期 2006-12-01
◎IMDb评分 4.9/10 from 21593 users
◎IMDb链接 https://www.imdb.com/title/tt0480271
◎豆瓣评分 6.0/10 from 5070 users
◎豆瓣链接 https://movie.douban.com/subject/1914681/
◎片  长 97 分钟
◎导  演 Mort Nathan
◎编  剧 David Drew Gallagher
◎主  演 Kal Penn
      Lauren Cohan
      Daniel Percival
      Glen Barry


◎标  签 喜剧 | 美国 | 校园 | 青春 | 搞笑 | 美国电影 | 2006 | 校园喜剧

◎简  介

  泰吉?巴德兰德巴德(卡尔?潘 Kal Penn 饰)带着范?维尔德的精神和大学学位,远赴英国加尔福德大学——这里是他父亲曾经“战斗”过的地方,兄弟会“狐狸与猎犬”之屋留下了父亲风光的记忆,然而来这里担任助教的泰吉并不被对方认可,狐狸与猎犬的首脑皮普反而将泰吉戏弄了一通。泰吉来到自己负责的宿舍——被戏称为马厩的败落小屋,这里住着四个边缘化的学生:研究量子物理和男女关系的盖辛,暴躁的爱尔兰人谢莫斯,沉默的宅男赛门以及不检点的女生赛迪。泰吉为了让这几位问题青年重新振作,自组鸡公牛社团向皮普的狐狸与猎犬之屋发起挑战,而皮普的女友查莉令泰吉一见钟情,于是一场关乎学生尊严和助教爱情的奋战拉开了序幕……
Video
ID : 1
Format : AVC
Format/Info : Advanced Video Codec
Format profile : [email protected]
Format settings : CABAC / 4 Ref Frames
Format settings, CABAC : Yes
Format settings, Reference frames : 4 frames
Codec ID : V_MPEG4/ISO/AVC
Duration : 1 h 37 min
Bit rate : 13.7 Mb/s
Width : 1 920 pixels
Height : 1 080 pixels
Display aspect ratio : 16:9
Frame rate mode : Constant
Frame rate : 23.976 (24000/1001) FPS
Color space : YUV
Chroma subsampling : 4:2:0
Bit depth : 8 bits
Scan type : Progressive
Bits/(Pixel*Frame) : 0.277
Stream size : 9.37 GiB (96%)
Default : Yes
Forced : No
Color range : Limited
Color primaries : BT.709
Transfer characteristics : BT.709
Matrix coefficients : BT.709

Audio
ID : 2
Format : E-AC-3
Format/Info : Enhanced AC-3
Commercial name : Dolby Digital Plus
Codec ID : A_EAC3
Duration : 1 h 37 min
Bit rate mode : Constant
Bit rate : 640 kb/s
Channel(s) : 6 channels
Channel layout : L R C LFE Ls Rs
Sampling rate : 48.0 kHz
Frame rate : 31.250 FPS (1536 SPF)
Compression mode : Lossy
Stream size : 446 MiB (4%)
Title : English
Language : English
Service kind : Complete Main
Default : Yes
Forced : No

Text
ID : 3
Format : UTF-8
Codec ID : S_TEXT/UTF8
Codec ID/Info : UTF-8 Plain Text
Duration : 1 h 36 min
Bit rate : 84 b/s
Count of elements : 1921
Stream size : 59.3 KiB (0%)
Title : English [SDH]
Language : English
Default : No
Forced : No





1 个附件 售价 大小 下载 时间

Van.Wilder.2.The.Rise.of.Taj.2006.1080p.AMZN.WEBRip.DDP5.1.x264-pawel2006.torrent 0 金币 49.59K 378 次 1月前

#1楼
发帖时间:2019-12-07 05:43:38   |   回复数:1
911degrees
隐世仙人♂
非常感谢,谢谢分享
1月前 #2楼
游客组