coor
武林盟主

[2014] [欧美] [剧情] [WEB-1080P] 恋爱中的傻瓜 Fools.2016.1080p.WEB-DL.DD5.1.H264-FGT 3.32GB

-->

帖子完整标题:恋爱中的傻瓜 Fools.2016.1080p.WEB-DL.DD5.1.H264-FGT 3.32GB




◎译  名 恋爱中的傻瓜
◎片  名 Fools
◎年  代 2014
◎产  地 美国
◎类  别 剧情
◎语  言 英语
◎IMDb评分 5.5/10 from 174 users
◎IMDb链接 https://www.imdb.com/title/tt2783926
◎豆瓣评分 0/10 from 0 users
◎豆瓣链接 https://movie.douban.com/subject/25750189/
◎导  演 Benjamin Meyer
◎编  剧 Benjamin Meyer
◎主  演 Paul Barile
      Janet Ulrich Brooks
      Berkeley Clayborne
      Maury Cooper
      Mary Cross
      Tony Fitzpatrick
      Danny Goldring
      John Lordan
      Tara Mallen
      Joyce Porter
      Walt Sloan
      Rebecca Spence
      Michael Szeles
      Matt Young
      Zo Zosak


◎标  签 美国 | 爱情 | 喜剧 | 剧情 | 2016

◎简  介

  两个陌生男女在拥挤的芝加哥火车上相识后感情迅速升温,一个星期后他们决定搬家住在一起。柴米油盐的生活让他们必须面对他们彼此的爱是否真实。
Video
ID : 1
Format : AVC
Format/Info : Advanced Video Codec
Format profile : [email protected]
Format settings : CABAC / 4 Ref Frames
Format settings, CABAC : Yes
Format settings, Reference frames : 4 frames
Codec ID : V_MPEG4/ISO/AVC
Duration : 1 h 27 min
Bit rate : 4 943 kb/s
Width : 1 916 pixels
Height : 1 076 pixels
Display aspect ratio : 16:9
Frame rate mode : Constant
Frame rate : 23.976 (24000/1001) FPS
Color space : YUV
Chroma subsampling : 4:2:0
Bit depth : 8 bits
Scan type : Progressive
Bits/(Pixel*Frame) : 0.100
Stream size : 3.02 GiB (91%)
Title : Fools.2016.1080p.WEB-DL.DD5.1.H264-FGT
Language : English
Default : Yes
Forced : No
Color range : Limited
Color primaries : BT.709
Transfer characteristics : BT.709
Matrix coefficients : BT.709

Audio
ID : 2
Format : AC-3
Format/Info : Audio Coding 3
Commercial name : Dolby Digital
Codec ID : A_AC3
Duration : 1 h 27 min
Bit rate mode : Constant
Bit rate : 384 kb/s
Channel(s) : 6 channels
Channel layout : L R C LFE Ls Rs
Sampling rate : 48.0 kHz
Frame rate : 31.250 FPS (1536 SPF)
Bit depth : 16 bits
Compression mode : Lossy
Stream size : 241 MiB (7%)
Title : Fools.2016.1080p.WEB-DL.DD5.1.H264-FGT
Language : English
Service kind : Complete Main
Default : Yes
Forced : No

Text
ID : 3
Format : UTF-8
Codec ID : S_TEXT/UTF8
Codec ID/Info : UTF-8 Plain Text
Language : English
Default : Yes
Forced : No

Menu
00:00:00.000 : en:Chapter 1
00:10:00.600 : en:Chapter 2
00:20:01.200 : en:Chapter 3
00:30:01.800 : en:Chapter 4
00:40:02.400 : en:Chapter 5
00:50:03.000 : en:Chapter 6
01:00:03.600 : en:Chapter 7
01:10:04.200 : en:Chapter 8
01:20:04.800 : en:Chapter 9





1 个附件 售价 大小 下载 时间

Fools.2016.1080p.WEB-DL.DD5.1.H264-FGT.torrent 0 金币 67.11K 175 次 3天前

#1楼
发帖时间:2020-01-15 05:49:49   |   回复数:1
911degrees
隐世仙人♂
非常感谢,谢谢分享
2天前 #2楼
游客组