mario5635
小有名气

[2015] [美国] [奇幻] [全集] [BT][冰与火之歌 权力游戏 第五季][全10集][英语/中英特效][BluRay/HEVC/AV3][1080P][MP4][DiaosMan]

-->

本特效字幕取自衣柜字幕,特此鸣谢衣柜字幕组!

◎片  名 - 冰与火之歌 权力的游戏 第五季

◎译  名 - Game of Thrones Season 5

◎年  代 - 2015年4月12日

◎国  家 - 美国

◎语  言 - 越狱

◎IMDb链接 - http://www.imdb.com/title/tt3658012/

◎片  长 - 60分钟/10集

◎导  演 - Michael Slovis

◎主  演 - 麦茜·威廉姆斯,艾米莉亚·克拉克,彼得·丁拉基,基特·哈灵顿,琳娜·海蒂,尼可拉·科斯特-瓦尔道,苏菲·特纳,娜塔莉·多默尔,艾丹·吉伦,约翰·C·布莱德利

◎简  介 - 第五季以一段闪回作为起始,女巫预言瑟曦·兰尼斯特(琳娜·海蒂饰)将母仪

天下,但会被另一个更加年轻、美丽的女子所推翻。瑟曦怀疑这个人就是儿媳玛格丽·提利尔,后者在乔佛里死后,嫁给了她的小儿子托曼·拜拉席恩,试图通过操控托曼这个小皇帝来实现提利尔家族对铁王座的野心。然而,觊觎铁王座的远不止她们。在泰温·兰尼斯特被其子小恶魔提利昂用弩箭杀死后,兰尼斯特家族的统治陷入了风雨飘摇之中。为了巩固自己的统治,瑟曦试图拉拢教会,允许教会拥有自己的武装。这一举措助长了新任总主教“大麻雀”的势力,却给瑟曦自己挖了个坑。

狭海对岸,龙母丹妮莉丝·坦格利安(艾米莉亚·克拉克饰)的统治同样脆弱。弥林城内外到处都有她的敌人,更糟的是她对龙也完全失去了控制力。不得已,丹妮莉丝嫁给了弥林贵族西茨达拉,可她的新婚丈夫却想毒死她。好在,小恶魔提利昂已经抵达弥林,他或许将为丹妮莉丝带来帮助。在多恩,“红毒蛇”奥柏伦·马泰尔的惨死让马泰尔家族群情激奋,奥柏伦的三个私生女想要独自行事,她们哪里知道道朗·马泰尔其实早就秘密计划着与兰尼斯特家族算总账,为此他还准备与大洋彼岸的丹妮莉丝结盟。

史塔克家的孩子散落在各地,为复仇各自谋划。在长城以北布兰·史塔克已经找到了三眼乌鸦;在艾林谷,珊莎·史塔克受到了小指头培提尔·贝里席的调教,准备通过婚姻夺城;在布拉佛斯,艾莉亚·史塔克受训,成为了一名刺客;而在长城,琼恩·雪诺(基特·哈灵顿饰)已成为这里的总司令,他想与野人建立起联盟,共同抵御异鬼,无奈他的守夜人弟兄不识他的苦心。

第五季剧情主线更为复杂,各国内患重重,与此同时,更为致命的外患----异鬼大军正逐步逼近。


◎编码参数 - 

General

Complete name                    : Z:\Game.of.Thrones.S05E01.2015.BluRay.1080p.HEVC.AC3.中英特效.mp4

Format                           : MPEG-4

Format profile                   : Base Media

Codec ID                         : isom

File size                        : 851 MiB

Duration                         : 52mn 11s

Overall bit rate                 : 2 281 Kbps

Encoded date                     : UTC 2017-04-10 13:40:13

Tagged date                      : UTC 2017-04-10 13:40:13


Video

ID                               : 1

Format                           : hev1

Codec ID                         : hev1

Duration                         : 52mn 11s

Bit rate mode                    : Variable

Bit rate                         : 2 022 Kbps

Maximum bit rate                 : 48.1 Mbps

Width                            : 1 920 pixels

Height                           : 1 080 pixels

Display aspect ratio             : 16:9

Frame rate mode                  : Constant

Frame rate                       : 23.976 fps

Bits/(Pixel*Frame)               : 0.041

Stream size                      : 755 MiB (89%)

Tagged date                      : UTC 2017-04-10 13:40:25


Audio

ID                               : 2

Format                           : AC-3

Format/Info                      : Audio Coding 3

Mode extension                   : CM (complete main)

Codec ID                         : ac-3

Duration                         : 52mn 11s

Bit rate mode                    : Constant

Bit rate                         : 256 Kbps

Maximum bit rate                 : 270 Kbps

Channel(s)                       : 6 channels

Channel positions                : Front: L C R, Side: L R, LFE

Sampling rate                    : 48.0 KHz

Bit depth                        : 16 bits

Compression mode                 : Lossy

Stream size                      : 95.6 MiB (11%)

Title                            : 英语

Language                         : English

Encoded date                     : UTC 2017-04-10 13:40:23

Tagged date                      : UTC 2017-04-10 13:40:25


◎视频截图


BT种子:迅雷、百度、115正在离线中,小水管上传,请诸位耐心下载


之前种子里确第八集,现在已经种子已经更新,已经下载过的朋友,可以下载单独下载第八集



1 个附件 售价 大小 下载 时间

冰与火之歌 权力的游戏 第五季.torrent 0 金币 29.81K 33890 次 2017-4-13

#1楼
发帖时间:2017-04-11 18:58:54   |   回复数:11
911degrees
隐世仙人♂
非常感谢,谢谢分享
2017-4-11 #2楼
大H
武林高手
字幕效果挺好,谢谢!
2017-4-11 #3楼
jokingcheung
一代宗师
谢谢分享
2017-4-12 #4楼
技近于道
小有名气
就是码率低了点!
2017-4-13 #5楼
chaosunny
武林高手
这版本看着很清楚,而且介绍这么详细,作者太用心了,虽然早已经看过了,但还是一定要下载保存,支持!
2017-4-13 #6楼
fsonline
武林高手
缺第8集啊!
2017-4-13 #7楼
cycymmmm
武林高手
谢谢楼主分享,辛苦辛苦
2017-4-26 #8楼
fay007
小有名气
感谢分享,收藏
2017-8-28 #9楼
幸福的时光
一派掌门
太感谢了,字幕一如即往的给力。
2017-9-2 #10楼
Dreamcast
武林高手
压制时主字幕字体没装全,看着难受,还是自己装字体和外挂字幕吧
2017-9-3 #11楼
wed
江湖小虾
这版本看着很清楚,而且介绍这么详细,作者太用心了,虽然早已经看过了,但还是一定要下载保存,支持!
2018-1-27 #12楼
游客组