呆呆狐狸
超级版主

[2018] [美国] [喜剧] [打包] [BT下载][永远/白头偕老 Forever 第一季][全08集打包][英语英字][MKV][720P/1080P][片源]

-->

◎译  名 永远/白头偕老

◎片  名 Forever

◎年  代 2018

◎产  地 美国

◎类  别 喜剧

◎语  言 英语

◎上映日期 2018-09-14(美国)

◎BT之家整理 http://www.btbtt.us/

◎集  数 8

◎主  演 玛娅·鲁道夫 Maya Rudolph

      弗莱德·阿米森 Fred Armisen

      凯瑟琳·基纳 Catherine Keener

      诺亚·罗宾斯 Noah Robbins

      金·惠特利 Kym Whitley

      朱莉娅·奥蒙德 Julia Ormond

      奥巴·巴巴图德 Obba Babatundé

      彼得·威勒 Peter Weller

      库珀J.弗里德曼 Cooper J. Friedman

      周洪 Hong Chau

      韩吉洋 Jee Young Han

      帕特里夏·贝尔彻 Patricia Belcher

      南希·利内翰 Nancy Lenehan

      杰森·米切尔 Jason Mitchell

      威尔·哈里斯 Will Harris

      C·J·瓦罗瑞 C.J. Valleroy

      迈克尔·韦弗 Michael Weaver

      斯图瓦特·斯科尔顿 Stewart Skelton

      Sharon Omi

      Charles Emmett

      Elizabeth Ho

      Jan Munroe

      Don Dowe

      Alison Trumbull

      Rheagan Wallace


◎简  介


  一对夫妻的平静生活一直重复,变得乏味。终于,一次奇异旅程带来了新激情,但似乎也带来了危险、疯狂和血腥。


Video
ID : 1
Format : AVC
Format/Info : Advanced Video Codec
Format profile : High@L3.1
Format settings : CABAC / 5 Ref Frames
Format settings, CABAC : Yes
Format settings, ReFrames : 5 frames
Codec ID : V_MPEG4/ISO/AVC
Duration : 34 min 58 s
Bit rate : 1 887 kb/s
Width : 1 280 pixels
Height : 720 pixels
Display aspect ratio : 16:9
Frame rate mode : Constant
Frame rate : 23.976 (24000/1001) FPS
Color space : YUV
Chroma subsampling : 4:2:0
Bit depth : 8 bits
Scan type : Progressive
Bits/(Pixel*Frame) : 0.085
Stream size : 472 MiB (75%)
Default : Yes
Forced : No
Color range : Limited
Color primaries : BT.709
Transfer characteristics : BT.709
Matrix coefficients : BT.709

Audio
ID : 2
Format : E-AC-3
Format/Info : Enhanced Audio Coding 3
Codec ID : A_EAC3
Duration : 34 min 58 s
Bit rate mode : Constant
Bit rate : 640 kb/s
Channel(s) : 6 channels
Channel positions : Front: L C R, Side: L R, LFE
Sampling rate : 48.0 kHz
Frame rate : 187.500 FPS (256 SPF)
Compression mode : Lossy
Stream size : 160 MiB (25%)
Language : English
Service kind : Complete Main
Default : Yes
Forced : No

Text
ID : 3
Format : UTF-8
Codec ID : S_TEXT/UTF8
Codec ID/Info : UTF-8 Plain Text
Duration : 33 min 34 s
Bit rate : 68 b/s
Count of elements : 592
Stream size : 16.8 KiB (0%)
Title : SDH
Language : English
Default : No
Forced : No

Menu
00:00:00.000 : en:Amazon Original
00:00:05.000 : en:Title Sequence
00:00:24.000 : en:Goodbye Forever
00:03:39.000 : en:Gregory and Marisol tell June about \"The Cleanse\"
00:04:36.000 : en:It\'s party time in Oceanside
00:07:22.000 : en:All roads lead to Oceanside
00:10:04.000 : en:June agrees to help Oscar
00:17:00.000 : en:June and Oscar share a moment
00:21:22.000 : en:Oscar and June have an honest conversation
00:26:27.000 : en:The Cleanse
00:29:04.000 : en:Oscar and June decide to take the next step
00:33:21.000 : en:End Credits




2 个附件 售价 大小 下载 时间

Forever.2018.S01.720p.AMZN.WEBRip.DDP5.1.x264-NTb[btbtt.me].torrent 0 金币 78.40K 287 次 2月前

Forever.2018.S01.1080p.AMZN.WEBRip.DDP5.1.x264-NTb[btbtt.me].torrent 0 金币 98.32K 189 次 2月前

#1楼
发帖时间:2018-09-14 21:27:07   |   回复数:1
911degrees
隐世仙人♂
非常感谢,谢谢分享
2月前 #2楼
游客组