呆呆狐狸
超级版主

[2018] [其他] [犯罪] [打包] [BT下载][束缚与放纵 Ingobernable 第二季][全12集打包][西语中字][MKV][1080P][片源]

-->

注:Netflix版片源 内含官方中字  更多字幕详见下面参数列表


◎译  名 束缚与放纵/失控 第二季

◎片  名 Ingobernable S02

◎年  代 2017

◎产  地 墨西哥

◎类  别 剧情/犯罪/悬疑

◎语  言 西班牙语

◎上映日期 2018

◎BT之家整理 http://www.btbtt.us/

◎集  数 12

◎片  长 40分钟

◎导  演 Pedro Pablo Ibarra

◎主  演 凯特·德尔·卡斯蒂洛 Kate del Castillo


◎简  介


  墨西哥电视明星Kate del Castillo主演的Netflix原创剧集《Ingobernable》在推迟之后今日将于美国开始制作拍摄。本剧原计划在墨西哥拍摄,不过目前据悉将会转移至美国拍摄。根据西语报道援引del Castillo的个人助理的话,本剧的很可能将在圣迭戈进行拍摄。

  Del Castillo最近加入了美国籍,居住在加利福尼亚。三月时,她告诉ABC新闻她害怕去墨西哥,因为担心遭到逮捕和起诉。因为她和演员Sean Penn与墨西哥臭名昭著的大毒枭Joaquin “El Chapo” Guzman逃狱的过程中进行了一次秘密会面,导致她被墨西哥政府严密监视。

  “这件事简直一波三折,毫无疑问这是这次事件的一次奇怪转折。”Netflix的首席内容官Sarandos一月份事件在舆论的风口浪尖时所说,当时公司重新确认该剧将在今年拍摄(本剧在2015年夏天就被预订,而很久之后才曝出del Castillo与El Chapo事件)。“事件很复杂不过到目前为止一切都进行的不错。”他说。

  在20集的《Ingobernable 》中,Del Castillo饰演墨西哥总统的妻子Irene Urzua。她有着强烈的个性,坚定的信仰和清晰的头脑,可以做到“必要时扶持总统,受伤时离开总统,背叛时杀死总统”。


Video
ID : 1
Format : AVC
Format/Info : Advanced Video Codec
Format profile : Main@L4
Format settings : CABAC / 3 Ref Frames
Format settings, CABAC : Yes
Format settings, ReFrames : 3 frames
Codec ID : V_MPEG4/ISO/AVC
Duration : 43 min 53 s
Bit rate mode : Variable
Bit rate : 5 893 kb/s
Nominal bit rate : 6 190 kb/s
Maximum bit rate : 9 285 kb/s
Width : 1 920 pixels
Height : 1 080 pixels
Display aspect ratio : 16:9
Frame rate mode : Constant
Frame rate : 23.976 (24000/1001) FPS
Color space : YUV
Chroma subsampling : 4:2:0
Bit depth : 8 bits
Scan type : Progressive
Bits/(Pixel*Frame) : 0.119
Stream size : 1.81 GiB (88%)
Writing library : x264 core 148 r2715 7e75228
Encoding settings : cabac=1 / ref=3 / deblock=1:0:0 / analyse=0x1:0x111 / me=umh / subme=10 / psy=1 / psy_rd=1.00:0.00 / mixed_ref=1 / me_range=24 / chroma_me=1 / trellis=2 / 8x8dct=0 / cqm=0 / deadzone=21,11 / fast_pskip=1 / chroma_qp_offset=-2 / threads=8 / lookahead_threads=1 / sliced_threads=0 / nr=0 / decimate=1 / interlaced=0 / bluray_compat=0 / stitchable=1 / constrained_intra=0 / bframes=2 / b_pyramid=0 / b_adapt=2 / b_bias=0 / direct=3 / weightb=1 / open_gop=0 / weightp=2 / keyint=48 / keyint_min=25 / scenecut=0 / intra_refresh=0 / rc_lookahead=48 / rc=2pass / mbtree=1 / bitrate=6190 / ratetol=1.0 / qcomp=0.50 / qpmin=6 / qpmax=51 / qpstep=4 / cplxblur=20.0 / qblur=0.5 / vbv_maxrate=9285 / vbv_bufsize=12380 / nal_hrd=vbr / filler=0 / ip_ratio=1.40 / aq=1:1.00
Default : Yes
Forced : No

Audio
ID : 2
Format : E-AC-3
Format/Info : Enhanced Audio Coding 3
Codec ID : A_EAC3
Duration : 43 min 53 s
Bit rate mode : Constant
Bit rate : 640 kb/s
Channel(s) : 6 channels
Channel positions : Front: L C R, Side: L R, LFE
Sampling rate : 48.0 kHz
Frame rate : 187.500 FPS (256 SPF)
Compression mode : Lossy
Stream size : 201 MiB (10%)
Language : Spanish
Service kind : Complete Main
Default : Yes
Forced : No
Encoded date : UTC 2018-09-10 19:27:45

Text #1
ID : 3
Format : UTF-8
Codec ID : S_TEXT/UTF8
Codec ID/Info : UTF-8 Plain Text
Title : Forced
Language : English
Default : No
Forced : No

Text #2
ID : 4
Format : UTF-8
Codec ID : S_TEXT/UTF8
Codec ID/Info : UTF-8 Plain Text
Title : English
Language : English
Default : No
Forced : No

Text #3
ID : 5
Format : UTF-8
Codec ID : S_TEXT/UTF8
Codec ID/Info : UTF-8 Plain Text
Title : English
Language : English
Default : No
Forced : No

Text #4
ID : 6
Format : UTF-8
Codec ID : S_TEXT/UTF8
Codec ID/Info : UTF-8 Plain Text
Title : Spanish
Language : Spanish
Default : No
Forced : No

Text #5
ID : 7
Format : UTF-8
Codec ID : S_TEXT/UTF8
Codec ID/Info : UTF-8 Plain Text
Title : Polish
Language : Polish
Default : No
Forced : No

Text #6
ID : 8
Format : UTF-8
Codec ID : S_TEXT/UTF8
Codec ID/Info : UTF-8 Plain Text
Title : Brazilian Portuguese
Language : Portuguese
Default : No
Forced : No

Text #7
ID : 9
Format : UTF-8
Codec ID : S_TEXT/UTF8
Codec ID/Info : UTF-8 Plain Text
Title : Simplified Chinese
Language : Chinese
Default : No
Forced : No

Text #8
ID : 10
Format : UTF-8
Codec ID : S_TEXT/UTF8
Codec ID/Info : UTF-8 Plain Text
Title : Korean
Language : Korean
Default : No
Forced : No

Text #9
ID : 11
Format : UTF-8
Codec ID : S_TEXT/UTF8
Codec ID/Info : UTF-8 Plain Text
Title : Swedish
Language : Swedish
Default : No
Forced : No

Text #10
ID : 12
Format : UTF-8
Codec ID : S_TEXT/UTF8
Codec ID/Info : UTF-8 Plain Text
Title : Finnish
Language : Finnish
Default : No
Forced : No

Text #11
ID : 13
Format : UTF-8
Codec ID : S_TEXT/UTF8
Codec ID/Info : UTF-8 Plain Text
Title : Hebrew
Language : Hebrew
Default : No
Forced : No

Text #12
ID : 14
Format : UTF-8
Codec ID : S_TEXT/UTF8
Codec ID/Info : UTF-8 Plain Text
Title : French
Language : French
Default : No
Forced : No

Text #13
ID : 15
Format : UTF-8
Codec ID : S_TEXT/UTF8
Codec ID/Info : UTF-8 Plain Text
Title : Arabic
Language : Arabic
Default : No
Forced : No

Text #14
ID : 16
Format : UTF-8
Codec ID : S_TEXT/UTF8
Codec ID/Info : UTF-8 Plain Text
Title : Norwegian
Language : Norwegian
Default : No
Forced : No

Text #15
ID : 17
Format : UTF-8
Codec ID : S_TEXT/UTF8
Codec ID/Info : UTF-8 Plain Text
Title : Danish
Language : Danish
Default : No
Forced : No

Text #16
ID : 18
Format : UTF-8
Codec ID : S_TEXT/UTF8
Codec ID/Info : UTF-8 Plain Text
Title : Romanian
Language : Romanian
Default : No
Forced : No

Text #17
ID : 19
Format : UTF-8
Codec ID : S_TEXT/UTF8
Codec ID/Info : UTF-8 Plain Text
Title : Russian
Language : Russian
Default : No
Forced : No

Text #18
ID : 20
Format : UTF-8
Codec ID : S_TEXT/UTF8
Codec ID/Info : UTF-8 Plain Text
Title : Greek
Language : Greek
Default : No
Forced : No

Text #19
ID : 21
Format : UTF-8
Codec ID : S_TEXT/UTF8
Codec ID/Info : UTF-8 Plain Text
Title : German
Language : German
Default : No
Forced : No

Text #20
ID : 22
Format : UTF-8
Codec ID : S_TEXT/UTF8
Codec ID/Info : UTF-8 Plain Text
Title : Italian
Language : Italian
Default : No
Forced : No

Text #21
ID : 23
Format : UTF-8
Codec ID : S_TEXT/UTF8
Codec ID/Info : UTF-8 Plain Text
Title : Thai
Language : Thai
Default : No
Forced : No

Text #22
ID : 24
Format : UTF-8
Codec ID : S_TEXT/UTF8
Codec ID/Info : UTF-8 Plain Text
Title : Traditional Chinese
Language : Chinese
Default : No
Forced : No

Text #23
ID : 25
Format : UTF-8
Codec ID : S_TEXT/UTF8
Codec ID/Info : UTF-8 Plain Text
Title : Dutch
Language : Dutch
Default : No
Forced : No

Text #24
ID : 26
Format : UTF-8
Codec ID : S_TEXT/UTF8
Codec ID/Info : UTF-8 Plain Text
Title : Indonesian
Language : Indonesian
Default : No
Forced : No

Text #25
ID : 27
Format : UTF-8
Codec ID : S_TEXT/UTF8
Codec ID/Info : UTF-8 Plain Text
Title : Japanese
Language : Japanese
Default : No
Forced : No

Text #26
ID : 28
Format : UTF-8
Codec ID : S_TEXT/UTF8
Codec ID/Info : UTF-8 Plain Text
Title : Turkish
Language : Turkish
Default : No
Forced : No

Text #27
ID : 29
Format : UTF-8
Codec ID : S_TEXT/UTF8
Codec ID/Info : UTF-8 Plain Text
Title : Portuguese
Language : Portuguese
Default : No
Forced : No





第一季:http://www.btbtt.me/thread-index-fid-950-tid-4442594.htm 


1 个附件 售价 大小 下载 时间

Ingobernable.S02.SPANISH.1080p.NF.WEBRip.DDP5.1.x264-TrollHD[btbtt.me].torrent 0 金币 94.82K 756 次 7天前

#1楼
发帖时间:2018-09-14 21:32:47   |   回复数:1
911degrees
隐世仙人♂
非常感谢,谢谢分享
7天前 #2楼
游客组