呆呆狐狸
超级版主

[2011] [美国] [喜剧] [打包] [BT下载][阳光先生/阳光大龄男 Mr. Sunshine 第一季][全13集打包][英语英字][MKV][1080P][片源]

-->

◎译  名 阳光先生/阳光大龄男

◎片  名 Mr. Sunshine

◎年  代 2011

◎产  地 美国

◎类  别 喜剧

◎语  言 英语

◎上映日期 2011-02-07(美国)

◎豆瓣评分 6.5/10 from 558 users

◎豆瓣链接 https://movie.douban.com/subject/4267863/

◎集  数 13

◎片  长 20分钟

◎导  演 托马斯·施拉梅 Thomas Schlamme

◎主  演 马修·派瑞 Matthew Perry

      艾莉森·珍妮 Allison Janney

      安德利娅·安德斯 Andrea Anders

      詹姆斯·勒斯库 James Lesure

      内特·托伦斯 Nate Torrence

      波茜娅·道布尔戴 Portia Doubleday


◎简  介


  本(马修·派瑞 Matthew Perry 饰)是一间名叫“阳光中心”的体育场的经理。成日埋首于工作的他自然而然的忽略了自己的感情生活。每天,本不仅仅要面对成百上千条体育馆使用申请,还要应付女上司克里斯汀(阿丽森·詹尼 Allison Janney 饰)那古怪烦人的性格和阴晴不定的个性。

  爱丽丝(安德利娅·安德斯 Andrea Anders 饰)是阳光中心的公关主任,活泼外向的她深受本的喜爱,然而,想要得到爱丽丝的芳心,本首先要打败他的情敌阿伦佐(詹姆斯·雷杰 James Lesure 饰)——一个机智幽默、处事圆滑而又彬彬有礼的完美男人。而本拥有的唯一战友是克里斯汀的儿子罗曼(内特·托伦斯 Nate Torrence 饰)。


Video
ID : 1
Format : AVC
Format/Info : Advanced Video Codec
Format profile : High@L4.1
Format settings : CABAC / 4 Ref Frames
Format settings, CABAC : Yes
Format settings, ReFrames : 4 frames
Codec ID : V_MPEG4/ISO/AVC
Duration : 21 min 37 s
Bit rate : 15.1 Mb/s
Width : 1 920 pixels
Height : 1 080 pixels
Display aspect ratio : 16:9
Frame rate mode : Constant
Frame rate : 23.976 (24000/1001) FPS
Color space : YUV
Chroma subsampling : 4:2:0
Bit depth : 8 bits
Scan type : Progressive
Bits/(Pixel*Frame) : 0.305
Stream size : 2.29 GiB (96%)
Writing library : x264 core 148 r2638 7599210
Encoding settings : cabac=1 / ref=4 / deblock=1:-3:-3 / analyse=0x3:0x133 / me=umh / subme=10 / psy=1 / psy_rd=1.00:0.00 / mixed_ref=1 / me_range=48 / chroma_me=1 / trellis=2 / 8x8dct=1 / cqm=0 / deadzone=21,11 / fast_pskip=1 / chroma_qp_offset=-2 / threads=12 / lookahead_threads=2 / sliced_threads=0 / nr=0 / decimate=0 / interlaced=0 / bluray_compat=0 / constrained_intra=0 / bframes=8 / b_pyramid=2 / b_adapt=2 / b_bias=0 / direct=3 / weightb=1 / open_gop=0 / weightp=2 / keyint=240 / keyint_min=23 / scenecut=40 / intra_refresh=0 / rc=crf / mbtree=0 / crf=17.0 / qcomp=0.60 / qpmin=0 / qpmax=69 / qpstep=4 / ip_ratio=1.40 / pb_ratio=1.30 / aq=3:0.70
Default : Yes
Forced : No

Audio
ID : 2
Format : E-AC-3
Format/Info : Enhanced Audio Coding 3
Codec ID : A_EAC3
Duration : 21 min 37 s
Bit rate mode : Constant
Bit rate : 640 kb/s
Channel(s) : 6 channels
Channel positions : Front: L C R, Side: L R, LFE
Sampling rate : 48.0 kHz
Frame rate : 187.500 FPS (256 SPF)
Compression mode : Lossy
Stream size : 99.0 MiB (4%)
Language : English
Service kind : Complete Main
Default : Yes
Forced : No

Text
ID : 3
Format : UTF-8
Codec ID : S_TEXT/UTF8
Codec ID/Info : UTF-8 Plain Text
Duration : 21 min 16 s
Bit rate : 117 b/s
Count of elements : 441
Stream size : 18.3 KiB (0%)
Language : English
Default : Yes
Forced : No



1 个附件 售价 大小 下载 时间

Mr.Sunshine.S01.1080p.AMZN.WEBRip.DDP5.1.x264-TrollHD[btbtt.me].torrent 0 金币 74.33K 203 次 7天前

#1楼
发帖时间:2018-09-14 21:44:34   |   回复数:1
911degrees
隐世仙人♂
非常感谢,谢谢分享
7天前 #2楼
游客组