呆呆狐狸
超级版主

[2017] [美国] [喜剧] [打包] [BT下载][明迪烦事多/The Mindy Project 第六季][全10集打包][英语英字][MKV][720P/1080P][片源]

-->

◎译  名 明迪烦事多 第六季

◎片  名 The Mindy Project Season 6

◎年  代 2017

◎产  地 美国

◎类  别 喜剧

◎语  言 英语

◎上映日期 2017-09-12(美国)

◎BT之家整理 http://www.btbtt.us/

◎集  数 10

◎片  长 24分钟

◎主  演 敏迪·卡灵 Mindy Kaling


◎简  介


  看似其貌不扬的Mindy Kaling却有着诸多头衔:受观众喜爱的演员;获得艾美奖提名的编剧(制片人);《纽约时报》畅销书作者;各家电视网老板的座上宾;以及……本剧的制片人、编剧兼演员。这部由Mindy Kaling自编、自演、自己制片的单镜头情景喜剧描述一个事业成功的女性拼命想要摆脱自己身上的坏毛病,在个人生活中获得「突破」。


Mindy Lahiri(Mindy Kaling)是一位妇产科医生,工作好得没话说,但生活却一团糟。试问哪个医生会在前男友的婚礼上发表不合时宜的祝酒词?差点在一个陌生人的游泳池里淹死?在即将为客户接生的前一刻因为「扰乱社会公共治安」罪被警察逮捕?Mindy就是这样的医生。她虽然为人幽默,但缺乏耐心,还有严重的政治错误倾向。她能将梅格·瑞恩的爱情电影中的台词倒背如流。无论好人坏人她都喜欢--因为电影里的女人总能让男人乖乖地俯首称臣。Mindy下决心让自己改掉不良的习惯,做到守时、少花钱、减掉一些重量、多读几本书……当然,终极目的是将自己改造成一个十全十美的「完美女性」,以便有资本去追求「完美男性」。


Mindy是个经验丰富的妇产科医生,与几名同事共同创办了一家私人妇产诊所。对Mindy来说,他们当中每一个人都让她感到头疼。Jeremy Reed(英国演员兼编剧Ed Weeks)就像是个丧门星,走到哪里都会惹麻烦。他不仅与Mindy分享诊所的产权,有时还和她分享同一张床--尽管她百般努力地抗拒他的性诱惑。他和Mindy一样幽默,热衷于自己的想法,而且……超级性感。与之相反,Danny Castelland(Chris Messina)是个急性子,男人中的男人,总喜欢「偷窃」Mindy的病人。Mindy所做的每一件事都遭到Danny的批评--包括她糟糕的爱情生活和她缺乏职业精神的作风。不过,除了Mindy之外每个人都看得出来,Danny其实偷偷钦佩她的工作成绩。Danny出身贫寒,因此他迫切希望改变命运。正因为肩上的担子太重,所以他才会变成今天这样子。他是个专注、优秀的医生,但Mindy不愿意承认这一点--或许是因为他总想插手她的病例。诊所前台接待员Betsy Putch(Zoe Jarman)年轻、热情、很容易兴奋,她总想用特别的方式来取悦Mindy并让她欣赏自己;Shauna Dicanio(Dana DeLorenzo)是一个自信的新泽西女孩,总是知道哪 里 有最好玩的聚会。她和Mindy的关系相对冷淡,但她却对Danny充满好感……事实上,是单相思。Mindy始终和大学里最要好的朋友Gwen Grandy(Anna Camp)保持着联系。Gwen喜欢开玩笑,说话直白,曾经是个喜欢玩聚会的交际花,但现在已经成熟许多。毕竟……她是州长的女儿!尽管Gwen和一个金融分析家幸福地结了婚,生了一个听话的女儿,但她在Mindy的生活中仍然占有一席之地。



Video
ID : 1
Format : AVC
Format/Info : Advanced Video Codec
Format profile : High@L4
Format settings : CABAC / 4 Ref Frames
Format settings, CABAC : Yes
Format settings, ReFrames : 4 frames
Codec ID : V_MPEG4/ISO/AVC
Duration : 30 min 28 s
Bit rate mode : Variable
Bit rate : 8 733 kb/s
Maximum bit rate : 15.0 Mb/s
Width : 1 920 pixels
Height : 1 080 pixels
Display aspect ratio : 16:9
Frame rate mode : Constant
Frame rate : 23.976 (24000/1001) FPS
Color space : YUV
Chroma subsampling : 4:2:0
Bit depth : 8 bits
Scan type : Progressive
Bits/(Pixel*Frame) : 0.176
Stream size : 1.86 GiB (93%)
Default : Yes
Forced : No
Color range : Limited
Color primaries : BT.709
Transfer characteristics : BT.709
Matrix coefficients : BT.709

Audio
ID : 2
Format : E-AC-3
Format/Info : Enhanced Audio Coding 3
Codec ID : A_EAC3
Duration : 30 min 28 s
Bit rate mode : Constant
Bit rate : 640 kb/s
Channel(s) : 6 channels
Channel positions : Front: L C R, Side: L R, LFE
Sampling rate : 48.0 kHz
Frame rate : 187.500 FPS (256 SPF)
Compression mode : Lossy
Stream size : 139 MiB (7%)
Language : English
Service kind : Complete Main
Default : Yes
Forced : No

Text
ID : 3
Format : UTF-8
Codec ID : S_TEXT/UTF8
Codec ID/Info : UTF-8 Plain Text
Duration : 30 min 19 s
Bit rate : 102 b/s
Count of elements : 650
Stream size : 22.7 KiB (0%)
Title : SDH
Language : English
Default : No
Forced : No




2 个附件 售价 大小 下载 时间

The.Mindy.Project.S06.720p.AMZN.WEBRip.DDP5.1.x264-AJP69[btbtt.me].torrent 0 金币 60.65K 119 次 11天前

The.Mindy.Project.S06.1080p.AMZN.WEBRip.DDP5.1.x264-AJP69[btbtt.me].torrent 0 金币 79.32K 119 次 11天前

#1楼
发帖时间:2018-09-14 22:16:34   |   回复数:1
911degrees
隐世仙人♂
非常感谢,谢谢分享
11天前 #2楼
游客组