呆呆狐狸
超级版主

[合 集] [澳剧] [剧情] [打包] [BT下载][奇境/Wonderland 第一至三季][全03季打包][英语英字][MKV][720P/1080P][片源]

-->

◎译  名 奇境

◎片  名 Wonderland 第一季 Wonderland Season 1

◎年  代 2013

◎产  地 澳大利亚

◎类  别 剧情

◎语  言 英语

◎上映日期 2013-08-21(澳大利亚)

◎IMDb评分  7.7/10 from 757 users

◎IMDb链接  http://www.imdb.com/title/tt2879390/

◎BT之家整理 http://www.btbtt.us/

◎片  长 43分钟

◎导  演 Tori Garrett

◎主  演 Anna Bamford

      迈克尔·多曼 Michael Dorman

      艾玛·朗 Emma Lung

      Tracy Mann

      Glenn McMillan

      Ben Mingay

      Tim Ross

      Brooke Satchwell

      杰西卡·托维 Jessica Tovey

      Christie Whelan

      罗伊·比令 Roy Billing

      Renzo Bellato

      Derani Scarr

      Letitia Sutherland

      Anthony Ingersent


◎简  介


  The lives of the residents living in a city apartment block in Sydney.


Video
ID : 1
Format : AVC
Format/Info : Advanced Video Codec
Format profile : High@L4
Format settings : CABAC / 4 Ref Frames
Format settings, CABAC : Yes
Format settings, ReFrames : 4 frames
Codec ID : V_MPEG4/ISO/AVC
Duration : 44 min 5 s
Bit rate : 11.4 Mb/s
Width : 1 920 pixels
Height : 1 080 pixels
Display aspect ratio : 16:9
Frame rate mode : Constant
Frame rate : 25.000 FPS
Color space : YUV
Chroma subsampling : 4:2:0
Bit depth : 8 bits
Scan type : Progressive
Bits/(Pixel*Frame) : 0.220
Stream size : 3.52 GiB (98%)
Default : Yes
Forced : No
Color range : Limited
Color primaries : BT.709
Transfer characteristics : BT.709
Matrix coefficients : BT.709

Audio
ID : 2
Format : E-AC-3
Format/Info : Enhanced AC-3
Commercial name : Dolby Digital Plus
Codec ID : A_EAC3
Duration : 44 min 5 s
Bit rate mode : Constant
Bit rate : 224 kb/s
Channel(s) : 2 channels
Channel layout : L R
Sampling rate : 48.0 kHz
Frame rate : 31.250 FPS (1536 SPF)
Compression mode : Lossy
Stream size : 70.6 MiB (2%)
Language : English
Service kind : Complete Main
Default : Yes
Forced : No

Text
ID : 3
Format : UTF-8
Codec ID : S_TEXT/UTF8
Codec ID/Info : UTF-8 Plain Text
Duration : 43 min 59 s
Bit rate : 86 b/s
Count of elements : 949
Stream size : 27.9 KiB (0%)
Title : SDH
Language : English
Default : No
Forced : No



#1楼
发帖时间:2018-10-12 17:51:42   |   回复数:4
aimorange
武林高手
谢谢分享,不常见澳剧
3天前 #2楼
garydevil
武林高手
谢谢分享
3天前 #3楼
911degrees
隐世仙人♂
非常感谢,谢谢分享
3天前 #4楼
呆呆狐狸
超级版主
追加2-3季
2天前 #5楼
游客组