呆呆狐狸
超级版主

[2018] [美国] [动作] [打包] [BT下载][人类清除计划/国定杀戮日 The Purge 第一季][全10集打包][英语英字][MKV][720P/1080P][片源]

-->

◎译  名 人类清除计划/国定杀戮日(台/港)

◎片  名 The Purge

◎年  代 2018

◎产  地 美国/美国

◎类  别 动作/犯罪/惊悚/恐怖

◎语  言 英语

◎上映日期 2018-09-04(美国)

◎BT之家整理 http://www.btbtt.us/

◎集  数 10

◎导  演 詹姆斯·德莫纳克 James DeMonaco / 安东尼·海明威 Anthony Hemingway

◎主  演 加布里埃尔·查瓦里亚 Gabriel Chavarria

      杰西卡·加萨 Jessica Garza

      阿曼达·沃伦 Amanda Warren

      科林·伍德尔 Colin Woodell

      莉莉·西蒙斯 Lili Simmons

      Hannah Anderson

      李·特格森 Lee Tergesen

      威廉·鲍德温 William Baldwin


◎简  介


  Blumhouse制片公司过去宣布把电影《人类清除计划 The Purge》开发成一部电视剧集,《人类清除计划》电影系列首部作在2013年上映,后来出了兩部票房十分成功的续集(第四集《人类清除计划4 The First Purge》已定于本年上映),而剧集版由Blumh ouse电视部门拍摄,定于美国时间9月4日在USA及Syfy同时播出(两台皆在NBC旗下)。

  《人类清除计划》剧集版会描述美国那无政府12小时清洗日的新篇章。在电影中,人类清除计划是一年一度的无政府节日,在晚上7点到第二天7点期间批准进行犯罪活动(杀人抢劫等),而且医院、警察﹑消防服务皆会停止,在这12小时内所有人(除了部份重要人物仍受保护)得靠自己来活下去……或者选择大开杀戒。


Video
ID : 1
Format : AVC
Format/Info : Advanced Video Codec
Format profile : High@L4
Format settings : CABAC / 4 Ref Frames
Format settings, CABAC : Yes
Format settings, ReFrames : 4 frames
Codec ID : V_MPEG4/ISO/AVC
Duration : 50 min 53 s
Bit rate mode : Variable
Bit rate : 6 611 kb/s
Maximum bit rate : 15.0 Mb/s
Width : 1 920 pixels
Height : 1 080 pixels
Display aspect ratio : 16:9
Frame rate mode : Constant
Frame rate : 23.976 (24000/1001) FPS
Color space : YUV
Chroma subsampling : 4:2:0
Bit depth : 8 bits
Scan type : Progressive
Bits/(Pixel*Frame) : 0.133
Stream size : 2.35 GiB (91%)
Default : Yes
Forced : No
Color range : Limited
Color primaries : BT.709
Transfer characteristics : BT.709
Matrix coefficients : BT.709

Audio
ID : 2
Format : E-AC-3
Format/Info : Enhanced AC-3
Commercial name : Dolby Digital Plus
Codec ID : A_EAC3
Duration : 50 min 53 s
Bit rate mode : Constant
Bit rate : 640 kb/s
Channel(s) : 6 channels
Channel layout : L R C LFE Ls Rs
Sampling rate : 48.0 kHz
Frame rate : 31.250 FPS (1536 SPF)
Compression mode : Lossy
Stream size : 233 MiB (9%)
Language : English
Service kind : Complete Main
Default : Yes
Forced : No

Text #1
ID : 3
Format : UTF-8
Codec ID : S_TEXT/UTF8
Codec ID/Info : UTF-8 Plain Text
Duration : 50 min 25 s
Bit rate : 60 b/s
Count of elements : 744
Stream size : 22.5 KiB (0%)
Language : English
Default : No
Forced : No

Text #2
ID : 4
Format : UTF-8
Codec ID : S_TEXT/UTF8
Codec ID/Info : UTF-8 Plain Text
Duration : 50 min 28 s
Bit rate : 67 b/s
Count of elements : 855
Stream size : 24.9 KiB (0%)
Title : SDH
Language : English
Default : No
Forced : No



2 个附件 售价 大小 下载 时间

The.Purge.S01.720p.AMZN.WEBRip.DDP5.1.x264-KiNGS[btbtt.me].torrent 0 金币 80.55K 658 次 6天前

The.Purge.S01.1080p.AMZN.WEBRip.DDP5.1.x264-KiNGS[btbtt.me].torrent 0 金币 95.51K 910 次 6天前

#1楼
发帖时间:2018-11-09 20:33:29   |   回复数:1
911degrees
隐世仙人♂
非常感谢,谢谢分享
6天前 #2楼
游客组