呆呆狐狸
超级版主

[2018] [美国] [喜剧] [打包] [BT下载][乔佩拉尬聊记 Joe Pera Talks with You 第一季][全09集打包][英语无字][MKV][1080P][片源]

-->

◎译  名 乔佩拉尬聊记 第一季

◎片  名 Joe Pera Talks with You. Season 1

◎年  代 2018

◎产  地 美国

◎类  别 喜剧

◎语  言 英语

◎上映日期 2018-05-20(美国)

◎IMDb评分 8.2/10 from 325 users

◎IMDb链接 http://www.imdb.com/title/tt8199790

◎BT之家整理 http://www.btbtt.us/

◎集  数 9

◎片  长 11分钟

◎导  演 Marty Schousboe

◎编  剧 Joe Pera

◎主  演 Joe Pera




◎简  介  


  Joe, beloved choir teacher, discusses topics of interest. First up, iron!


Video
ID : 1
Format : AVC
Format/Info : Advanced Video Codec
Format profile : High@L4
Format settings : CABAC / 2 Ref Frames
Format settings, CABAC : Yes
Format settings, ReFrames : 2 frames
Codec ID : V_MPEG4/ISO/AVC
Duration : 23 min 30 s
Bit rate mode : Constant
Bit rate : 8 500 kb/s
Width : 1 920 pixels
Height : 1 080 pixels
Display aspect ratio : 16:9
Frame rate mode : Constant
Frame rate : 29.970 (30000/1001) FPS
Color space : YUV
Chroma subsampling : 4:2:0
Bit depth : 8 bits
Scan type : Progressive
Bits/(Pixel*Frame) : 0.137
Stream size : 1.38 GiB (98%)
Default : Yes
Forced : No

Audio
ID : 2
Format : AAC LC
Format/Info : Advanced Audio Codec Low Complexity
Codec ID : A_AAC-2
Duration : 23 min 30 s
Bit rate : 126 kb/s
Channel(s) : 2 channels
Channel layout : L R
Sampling rate : 44.1 kHz
Frame rate : 43.066 FPS (1024 SPF)
Compression mode : Lossy
Stream size : 21.1 MiB (1%)
Default : Yes
Forced : No



1 个附件 售价 大小 下载 时间

Joe.Pera.Talks.With.You.S01.1080p.WEBRip.AAC2.0.x264-BTN[btbtt.me].torrent 0 金币 68.32K 168 次 6天前

#1楼
发帖时间:2018-11-09 20:45:18   |   回复数:1
911degrees
隐世仙人♂
非常感谢,谢谢分享
6天前 #2楼
游客组