呆呆狐狸
超级版主

[2018] [英国] [剧情] [打包] [BT下载][蝴蝶/破茧成蝶 Butterfly 第一季][全03集打包][英语无字][MKV][1080P][片源]

-->

◎译  名 蝴蝶/破茧成蝶

◎片  名 Butterfly

◎年  代 2018

◎产  地 英国

◎类  别 剧情

◎语  言 英语

◎上映日期 2018-10(英国)

◎IMDb评分  6.4/10 from 44 users

◎IMDb链接  http://www.imdb.com/title/tt7703440/

◎BT之家整理 http://www.btbtt.us/

◎集  数 3

◎导  演 安东尼·拜恩 Anthony Byrne

◎主  演 安娜·弗莱尔 Anna Friel


◎简  介


  ITV迷你剧#Butterfly##蝴蝶#发布正式预告,这部剧讲述11岁的小男孩麦克斯认定自己其实是一个女孩,他想以女孩的身份生活。这给他已经离异的父母带来了巨大的困扰,在如何处理这件事情上,他们存在着巨大的分歧。父母对孩子的爱能否战胜一切阻碍?


Video
ID : 1
Format : AVC
Format/Info : Advanced Video Codec
Format profile : High@L4
Format settings : CABAC / 4 Ref Frames
Format settings, CABAC : Yes
Format settings, ReFrames : 4 frames
Codec ID : V_MPEG4/ISO/AVC
Duration : 45 min 23 s
Bit rate : 5 309 kb/s
Width : 1 920 pixels
Height : 1 080 pixels
Display aspect ratio : 16:9
Frame rate mode : Constant
Frame rate : 25.000 FPS
Color space : YUV
Chroma subsampling : 4:2:0
Bit depth : 8 bits
Scan type : Progressive
Bits/(Pixel*Frame) : 0.102
Stream size : 1.68 GiB (96%)
Default : Yes
Forced : No
Color range : Limited
Color primaries : BT.709
Transfer characteristics : BT.709
Matrix coefficients : BT.709

Audio
ID : 2
Format : E-AC-3
Format/Info : Enhanced AC-3
Commercial name : Dolby Digital Plus
Codec ID : A_EAC3
Duration : 45 min 23 s
Bit rate mode : Constant
Bit rate : 224 kb/s
Channel(s) : 2 channels
Channel layout : L R
Sampling rate : 48.0 kHz
Frame rate : 31.250 FPS (1536 SPF)
Compression mode : Lossy
Stream size : 72.7 MiB (4%)
Language : English
Service kind : Complete Main
Default : Yes
Forced : No



1 个附件 售价 大小 下载 时间

Butterfly.S01.1080p.AMZN.WEBRip.DDP2.0.x264-NTb[btbtt.me].torrent 0 金币 52.40K 147 次 6天前

#1楼
发帖时间:2018-11-09 21:50:52   |   回复数:1
911degrees
隐世仙人♂
非常感谢,谢谢分享
6天前 #2楼
游客组