呆呆狐狸
隐世仙人♂

[2007] [美国] [科幻] [打包] [BT下载][飞侠哥顿 Flash Gordon 第一季][全22集打包][英语无字][MKV][1080P][片源]

-->

◎译  名 飞侠哥顿

◎片  名 Flash Gordon

◎年  代 2007

◎产  地 美国 / 加拿大

◎类  别 剧情 / 动作 / 科幻 / 冒险

◎语  言 英语

◎IMDb评分 4.8/10 from 2820 users

◎IMDb链接 http://www.imdb.com/title/tt0959086

◎BT之家整理 http://www.btbtt.us/

◎集  数 22

◎导  演 Peter Hume (developer) / Derick Martini (head writer)

◎主  演 Gina Holden ...  Dale Arden

      Eric Johnson ...  Flash Gordon

      Karen Cliche ...  Baylin



◎简  介  


  SCI FI即将上映最知名的科幻剧之一—《飞侠哥顿》。这部焕然一新的《飞侠哥顿》围绕着Flash以及他的同伴Dale Arden和Hans Zarkov博士的惊险的、意义非凡的历险展开。

他们是平凡人的希望。他们经常违背自身意愿使自己陷入特殊的境地。事实上,他们是地球上对抗残忍的独裁者明的最后防御力量。

随着系列剧的开播,我们了解到Flash的父亲——著名科学家Lawrence Gordon博士在Flash 13岁那年死于实验室的大火。

Flash无法预知某些事即将来临。这些事将彻底推翻Gordon原有的想法。并且引导他走向一条责任重大、胜利连连的道路。

Flash的父亲过去所做的试验导致了一系列危险的后果。当这些不良后果危机到他的时候,Flash的冒险旅程开始了。他总是寻求前女友Dale的意见。她是电台记者,同时已与警探Joe Wylee订婚。Dale很快又重新爱上了Flash。

Zaekov,Flash父亲的性情古怪的助理也找到了Flash。Zarkov一直都对跨空间入口宇宙有所警惕。这个入口好比宇宙空间的一滴眼泪,并且是Flash的父亲曾一直想要创造出的黑夜之火。

这项发明会成为Falsh所面对的最令他兴奋的事。



Video
ID : 1
Format : HEVC
Format/Info : High Efficiency Video Coding
Format profile : [email protected]@Main
Codec ID : V_MPEGH/ISO/HEVC
Duration : 43 min 56 s
Bit rate : 8 838 kb/s
Width : 1 920 pixels
Height : 1 080 pixels
Display aspect ratio : 16:9
Frame rate mode : Constant
Frame rate : 23.976 (24000/1001) FPS
Standard : NTSC
Color space : YUV
Chroma subsampling : 4:2:0
Bit depth : 8 bits
Bits/(Pixel*Frame) : 0.178
Stream size : 2.71 GiB (93%)
Writing library : x265 0.0:[Linux][GCC 4.8.2][64 bit] 8bit+10bit+12bit
Encoding settings : cpuid=1173503 / frame-threads=1 / wpp / no-pmode / no-pme / psnr / ssim / log-level=2 / csvfn=/apollo/env/YoshiEncodingWorkflowActivitiesLinuxEncoding/var/tmp/1223831495/757ae105-27e4-4eda-9ede-6f0ead1cecbe/9267f5d0-0303-4cc5-a8f2-2cb6c0409156_video_1080p_9000kbps.csv / csv-log-level=2 / input-csp=1 / input-res=1920x1080 / interlace=0 / total-frames=0 / level-idc=40 / high-tier=1 / uhd-bd=0 / ref=5 / no-allow-non-conformance / no-repeat-headers / annexb / no-aud / no-hrd / info / hash=0 / no-temporal-layers / no-open-gop / min-keyint=61 / keyint=120 / bframes=5 / b-adapt=2 / b-pyramid / bframe-bias=0 / rc-lookahead=120 / lookahead-slices=0 / scenecut=0 / no-intra-refresh / ctu=64 / min-cu-size=8 / rect / no-amp / max-tu-size=32 / tu-inter-depth=1 / tu-intra-depth=1 / limit-tu=0 / rdoq-level=2 / dynamic-rd=0.00 / no-ssim-rd / signhide / no-tskip / nr-intra=0 / nr-inter=200 / no-constrained-intra / strong-intra-smoothing / max-merge=3 / limit-refs=3 / limit-modes / me=3 / subme=3 / merange=57 / temporal-mvp / weightp / no-weightb / no-analyze-src-pics / deblock=0:0 / sao / no-sao-non-deblock / rd=4 / no-early-skip / rskip / no-fast-intra / no-tskip-fast / no-cu-lossless / no-b-intra / rdpenalty=0 / psy-rd=2.00 / psy-rdoq=1.00 / no-rd-refine / analysis-reuse-mode=0 / no-lossless / cbqpoffs=0 / crqpoffs=0 / rc=crf / crf=21.5 / qcomp=0.60 / qpstep=4 / stats-write=0 / stats-read=0 / vbv-maxrate=9000 / vbv-bufsize=12000 / vbv-init=0.9 / crf-max=0.0 / crf-min=0.0 / ipratio=1.40 / pbratio=1.30 / aq-mode=3 / aq-strength=2.00 / cutree / zone-count=0 / no-strict-cbr / qg-size=32 / no-rc-grain / qpmax=69 / qpmin=0 / no-const-vbv / sar=1 / overscan=0 / videoformat=2 / range=0 / colorprim=1 / transfer=1 / colormatrix=1 / chromaloc=0 / display-window=0 / max-cll=0,0 / min-luma=0 / max-luma=255 / log2-max-poc-lsb=8 / vui-timing-info / vui-hrd-info / slices=1 / opt-qp-pps / opt-ref-list-length-pps / no-multi-pass-opt-rps / scenecut-bias=0.05 / no-opt-cu-delta-qp / no-aq-motion / no-hdr / no-hdr-opt / no-dhdr10-opt / analysis-reuse-level=5 / scale-factor=0 / refine-intra=0 / refine-inter=0 / refine-mv=0 / no-limit-sao / ctu-info=0
Default : Yes
Forced : No
Color range : Limited
Color primaries : BT.709
Transfer characteristics : BT.709
Matrix coefficients : BT.709

Audio
ID : 2
Format : E-AC-3
Format/Info : Enhanced AC-3
Commercial name : Dolby Digital Plus
Codec ID : A_EAC3
Duration : 43 min 56 s
Bit rate mode : Constant
Bit rate : 640 kb/s
Channel(s) : 6 channels
Channel layout : L R C LFE Ls Rs
Sampling rate : 48.0 kHz
Frame rate : 31.250 FPS (1536 SPF)
Compression mode : Lossy
Stream size : 201 MiB (7%)
Language : English
Service kind : Complete Main
Default : Yes
Forced : No

Text
ID : 3
Format : UTF-8
Codec ID : S_TEXT/UTF8
Codec ID/Info : UTF-8 Plain Text
Duration : 42 min 41 s
Bit rate : 70 b/s
Count of elements : 798
Stream size : 22.0 KiB (0%)
Title : English (SDH)
Language : English
Default : No
Forced : No



1 个附件 售价 大小 下载 时间

Flash.Gordon.S01.1080p.AMZN.WEBRip.DDP5.1.x265-SiGMA[btbtt.me].torrent 0 金币 155.27K 665 次 11月前

#1楼
发帖时间:2018-11-28 12:04:38   |   回复数:1
911degrees
隐世仙人♂
非常感谢,谢谢分享
11月前 #2楼
游客组