呆呆狐狸
超级版主

[2018] [澳剧] [纪录] [打包] [BT下载][光影传说 Tales by Light 第三季][全06集打包][英语中字][MKV][1080P][片源]

-->

注:Netflix版片源 内含官方中字  更多字幕详见下面参数列表

◎译  名 光影传说

◎片  名 Tales by Light

◎年  代 2015

◎产  地 澳大利亚

◎语  言 英语

◎上映日期 2018

◎IMDb评分 8.3/10 from 1174 users

◎IMDb链接 http://www.imdb.com/title/tt5350276

◎豆瓣评分 8.7/10 from 118 users

◎豆瓣链接 https://movie.douban.com/subject/26927903/

◎◎BT之家整理 http://www.btbtt.us/

◎片  长 23分钟

◎导  演 Abraham Joffe

◎编  剧 Abraham Joffe

◎主  演 Art Wolfe

      Justin Brim

      Shane Denherder




◎简  介  


  以摄影为主线,串联起旅游、人文、历史、自然、极限运动、野生动物的精品纪录片。



Video
ID : 1
Format : AVC
Format/Info : Advanced Video Codec
Format profile : [email protected]
Format settings : CABAC / 3 Ref Frames
Format settings, CABAC : Yes
Format settings, ReFrames : 3 frames
Codec ID : V_MPEG4/ISO/AVC
Duration : 25 min 30 s
Bit rate mode : Variable
Bit rate : 7 500 kb/s
Maximum bit rate : 11.2 Mb/s
Width : 1 920 pixels
Height : 1 080 pixels
Display aspect ratio : 16:9
Frame rate mode : Constant
Frame rate : 25.000 FPS
Color space : YUV
Chroma subsampling : 4:2:0
Bit depth : 8 bits
Scan type : Progressive
Bits/(Pixel*Frame) : 0.145
Stream size : 1.32 GiB (92%)
Writing library : x264 core 148 r2715 7e75228
Encoding settings : cabac=1 / ref=3 / deblock=1:0:0 / analyse=0x1:0x111 / me=umh / subme=10 / psy=1 / psy_rd=1.00:0.00 / mixed_ref=1 / me_range=24 / chroma_me=1 / trellis=2 / 8x8dct=0 / cqm=0 / deadzone=21,11 / fast_pskip=1 / chroma_qp_offset=-2 / threads=8 / lookahead_threads=1 / sliced_threads=0 / nr=0 / decimate=1 / interlaced=0 / bluray_compat=0 / stitchable=1 / constrained_intra=0 / bframes=2 / b_pyramid=0 / b_adapt=2 / b_bias=0 / direct=3 / weightb=1 / open_gop=0 / weightp=2 / keyint=50 / keyint_min=26 / scenecut=0 / intra_refresh=0 / rc_lookahead=50 / rc=2pass / mbtree=1 / bitrate=7500 / ratetol=1.0 / qcomp=0.50 / qpmin=6 / qpmax=51 / qpstep=4 / cplxblur=20.0 / qblur=0.5 / vbv_maxrate=11250 / vbv_bufsize=15000 / nal_hrd=vbr / filler=0 / ip_ratio=1.40 / aq=1:1.00
Default : Yes
Forced : No

Audio
ID : 2
Format : E-AC-3
Format/Info : Enhanced AC-3
Commercial name : Dolby Digital Plus
Codec ID : A_EAC3
Duration : 25 min 30 s
Bit rate mode : Constant
Bit rate : 640 kb/s
Channel(s) : 6 channels
Channel layout : L R C LFE Ls Rs
Sampling rate : 48.0 kHz
Frame rate : 31.250 FPS (1536 SPF)
Compression mode : Lossy
Stream size : 117 MiB (8%)
Title : English
Language : English
Service kind : Complete Main
Default : Yes
Forced : No

Text #1
ID : 3
Format : UTF-8
Codec ID : S_TEXT/UTF8
Codec ID/Info : UTF-8 Plain Text
Duration : 18 min 22 s
Bit rate : 32 b/s
Count of elements : 109
Stream size : 4.34 KiB (0%)
Title : Forced
Language : English
Default : Yes
Forced : Yes

Text #2
ID : 4
Format : UTF-8
Codec ID : S_TEXT/UTF8
Codec ID/Info : UTF-8 Plain Text
Duration : 23 min 32 s
Bit rate : 76 b/s
Count of elements : 258
Stream size : 13.2 KiB (0%)
Language : English
Default : No
Forced : No

Text #3
ID : 5
Format : UTF-8
Codec ID : S_TEXT/UTF8
Codec ID/Info : UTF-8 Plain Text
Duration : 23 min 32 s
Bit rate : 78 b/s
Count of elements : 266
Stream size : 13.6 KiB (0%)
Title : SDH
Language : English
Default : No
Forced : No

Text #4
ID : 6
Format : UTF-8
Codec ID : S_TEXT/UTF8
Codec ID/Info : UTF-8 Plain Text
Duration : 24 min 1 s
Bit rate : 103 b/s
Count of elements : 297
Stream size : 18.2 KiB (0%)
Language : Arabic
Default : No
Forced : No

Text #5
ID : 7
Format : UTF-8
Codec ID : S_TEXT/UTF8
Codec ID/Info : UTF-8 Plain Text
Duration : 24 min 1 s
Bit rate : 68 b/s
Count of elements : 222
Stream size : 12.1 KiB (0%)
Language : Danish
Default : No
Forced : No

Text #6
ID : 8
Format : UTF-8
Codec ID : S_TEXT/UTF8
Codec ID/Info : UTF-8 Plain Text
Duration : 24 min 1 s
Bit rate : 77 b/s
Count of elements : 299
Stream size : 13.7 KiB (0%)
Language : German
Default : No
Forced : No

Text #7
ID : 9
Format : UTF-8
Codec ID : S_TEXT/UTF8
Codec ID/Info : UTF-8 Plain Text
Duration : 24 min 1 s
Bit rate : 117 b/s
Count of elements : 301
Stream size : 20.6 KiB (0%)
Language : Greek
Default : No
Forced : No

Text #8
ID : 10
Format : UTF-8
Codec ID : S_TEXT/UTF8
Codec ID/Info : UTF-8 Plain Text
Duration : 24 min 1 s
Bit rate : 71 b/s
Count of elements : 300
Stream size : 12.6 KiB (0%)
Language : Spanish
Default : No
Forced : No

Text #9
ID : 11
Format : UTF-8
Codec ID : S_TEXT/UTF8
Codec ID/Info : UTF-8 Plain Text
Duration : 24 min 1 s
Bit rate : 70 b/s
Count of elements : 298
Stream size : 12.4 KiB (0%)
Title : European
Language : Spanish
Default : No
Forced : No

Text #10
ID : 12
Format : UTF-8
Codec ID : S_TEXT/UTF8
Codec ID/Info : UTF-8 Plain Text
Duration : 24 min 1 s
Bit rate : 67 b/s
Count of elements : 231
Stream size : 11.8 KiB (0%)
Language : Finnish
Default : No
Forced : No

Text #11
ID : 13
Format : UTF-8
Codec ID : S_TEXT/UTF8
Codec ID/Info : UTF-8 Plain Text
Duration : 24 min 1 s
Bit rate : 75 b/s
Count of elements : 277
Stream size : 13.3 KiB (0%)
Language : French
Default : No
Forced : No

Text #12
ID : 14
Format : UTF-8
Codec ID : S_TEXT/UTF8
Codec ID/Info : UTF-8 Plain Text
Duration : 24 min 1 s
Bit rate : 97 b/s
Count of elements : 300
Stream size : 17.1 KiB (0%)
Language : Hebrew
Default : No
Forced : No

Text #13
ID : 15
Format : UTF-8
Codec ID : S_TEXT/UTF8
Codec ID/Info : UTF-8 Plain Text
Duration : 24 min 1 s
Bit rate : 74 b/s
Count of elements : 299
Stream size : 13.1 KiB (0%)
Language : Italian
Default : No
Forced : No

Text #14
ID : 16
Format : UTF-8
Codec ID : S_TEXT/UTF8
Codec ID/Info : UTF-8 Plain Text
Duration : 24 min 1 s
Bit rate : 65 b/s
Count of elements : 270
Stream size : 11.5 KiB (0%)
Language : Japanese
Default : No
Forced : No

Text #15
ID : 17
Format : UTF-8
Codec ID : S_TEXT/UTF8
Codec ID/Info : UTF-8 Plain Text
Duration : 24 min 1 s
Bit rate : 75 b/s
Count of elements : 301
Stream size : 13.2 KiB (0%)
Language : Korean
Default : No
Forced : No

Text #16
ID : 18
Format : UTF-8
Codec ID : S_TEXT/UTF8
Codec ID/Info : UTF-8 Plain Text
Duration : 24 min 1 s
Bit rate : 72 b/s
Count of elements : 296
Stream size : 12.8 KiB (0%)
Language : Norwegian Bokmal
Default : No
Forced : No

Text #17
ID : 19
Format : UTF-8
Codec ID : S_TEXT/UTF8
Codec ID/Info : UTF-8 Plain Text
Duration : 24 min 1 s
Bit rate : 58 b/s
Count of elements : 285
Stream size : 10.3 KiB (0%)
Language : Dutch
Default : No
Forced : No

Text #18
ID : 20
Format : UTF-8
Codec ID : S_TEXT/UTF8
Codec ID/Info : UTF-8 Plain Text
Duration : 24 min 2 s
Bit rate : 68 b/s
Count of elements : 283
Stream size : 12.1 KiB (0%)
Language : Polish
Default : No
Forced : No

Text #19
ID : 21
Format : UTF-8
Codec ID : S_TEXT/UTF8
Codec ID/Info : UTF-8 Plain Text
Duration : 24 min 1 s
Bit rate : 73 b/s
Count of elements : 290
Stream size : 13.0 KiB (0%)
Language : Portuguese
Default : No
Forced : No

Text #20
ID : 22
Format : UTF-8
Codec ID : S_TEXT/UTF8
Codec ID/Info : UTF-8 Plain Text
Duration : 24 min 1 s
Bit rate : 72 b/s
Count of elements : 300
Stream size : 12.8 KiB (0%)
Title : Brazilian
Language : Portuguese
Default : No
Forced : No

Text #21
ID : 23
Format : UTF-8
Codec ID : S_TEXT/UTF8
Codec ID/Info : UTF-8 Plain Text
Duration : 24 min 0 s
Bit rate : 70 b/s
Count of elements : 299
Stream size : 12.5 KiB (0%)
Language : Romanian
Default : No
Forced : No

Text #22
ID : 24
Format : UTF-8
Codec ID : S_TEXT/UTF8
Codec ID/Info : UTF-8 Plain Text
Duration : 24 min 1 s
Bit rate : 71 b/s
Count of elements : 299
Stream size : 12.5 KiB (0%)
Language : Swedish
Default : No
Forced : No

Text #23
ID : 25
Format : UTF-8
Codec ID : S_TEXT/UTF8
Codec ID/Info : UTF-8 Plain Text
Duration : 24 min 1 s
Bit rate : 161 b/s
Count of elements : 306
Stream size : 28.5 KiB (0%)
Language : Thai
Default : No
Forced : No

Text #24
ID : 26
Format : UTF-8
Codec ID : S_TEXT/UTF8
Codec ID/Info : UTF-8 Plain Text
Duration : 24 min 1 s
Bit rate : 77 b/s
Count of elements : 298
Stream size : 13.7 KiB (0%)
Language : Turkish
Default : No
Forced : No

Text #25
ID : 27
Format : UTF-8
Codec ID : S_TEXT/UTF8
Codec ID/Info : UTF-8 Plain Text
Duration : 23 min 55 s
Bit rate : 59 b/s
Count of elements : 301
Stream size : 10.5 KiB (0%)
Title : Simplified
Language : Chinese
Default : No
Forced : No

Text #26
ID : 28
Format : UTF-8
Codec ID : S_TEXT/UTF8
Codec ID/Info : UTF-8 Plain Text
Duration : 24 min 1 s
Bit rate : 59 b/s
Count of elements : 296
Stream size : 10.5 KiB (0%)
Title : Traditional
Language : Chinese
Default : No
Forced : No



1 个附件 售价 大小 下载 时间

Tales.by.Light.S03.1080p.NF.WEBRip.DDP5.1.x264-NTb[btbtt.me].torrent 0 金币 78.40K 1694 次 8月前

#1楼
发帖时间:2018-12-26 17:46:42   |   回复数:2
911degrees
隐世仙人♂
非常感谢,谢谢分享
8月前 #2楼
zhdyy
武林高手
引用 呆呆狐狸:

注:Netflix版片源 内含官方中字  更多字幕详见下面参数列表◎译  名 光影传说◎片  名 Tales by Light◎年  代 2015◎产  地 澳大利亚◎语  言 英语◎上映日期 2018◎IMDb评分 8.3/10 from 1174 users◎IMDb链接 http://www.imdb.com/title/tt5350276◎豆瓣评分 8.7/10 from 118


1.2季有没有中文字幕1080P呢》》??
1月前 #3楼
游客组