呆呆狐狸
超级版主

[合 集] [英国] [真人] [打包] [BT下载][特种部队:谁与争锋 第一至二季][全02季打包][英语无字][MKV][1080P][片源]

-->

◎译  名 特种部队:谁与争锋 / SAS:勇者必胜

◎片  名 SAS: Who Dares Wins

◎年  代 2015

◎产  地 英国

◎类  别 真人秀

◎语  言 英语

◎上映日期 2015-10-19(英国)

◎IMDb评分 8.6/10 from 496 users

◎IMDb链接 http://www.imdb.com/title/tt5189220

◎BT之家整理 http://www.btbtt.us/

◎片  长 48分钟

◎主  演 Shaun Dooley




◎简  介  


  Five ex-Special Forces soldiers recreate the SAS's secret selection process and put 30 men through it| in the ultimate test of their physical and - more importantly- psychological resilience.


Video
ID : 2
Format : AVC
Format/Info : Advanced Video Codec
Format profile : [email protected]
Format settings : CABAC / 4 Ref Frames
Format settings, CABAC : Yes
Format settings, ReFrames : 4 frames
Codec ID : V_MPEG4/ISO/AVC
Duration : 47 min 33 s
Bit rate : 5 220 kb/s
Width : 1 912 pixels
Height : 1 072 pixels
Display aspect ratio : 16:9
Frame rate mode : Constant
Frame rate : 25.000 FPS
Color space : YUV
Chroma subsampling : 4:2:0
Bit depth : 8 bits
Scan type : Progressive
Bits/(Pixel*Frame) : 0.102
Stream size : 1.73 GiB (98%)
Default : Yes
Forced : No
Color range : Limited
Color primaries : BT.709
Transfer characteristics : BT.709
Matrix coefficients : BT.709

Audio
ID : 1
Format : AAC LC
Format/Info : Advanced Audio Codec Low Complexity
Codec ID : A_AAC-2
Duration : 47 min 33 s
Bit rate : 126 kb/s
Channel(s) : 2 channels
Channel layout : L R
Sampling rate : 48.0 kHz
Frame rate : 46.875 FPS (1024 SPF)
Compression mode : Lossy
Stream size : 42.7 MiB (2%)
Default : Yes
Forced : No



2 个附件 售价 大小 下载 时间

SAS.Who.Dares.Wins.S01.1080p.iT.WEB-DL.AAC2.0.H264-SAMUEL98[btbtt.me].torrent 0 金币 85.97K 1120 次 8月前

SAS.Who.Dares.Wins.S02.1080p.iT.WEB-DL.AAC2.0.H264-SAMUEL98[btbtt.me].torrent 0 金币 88.53K 945 次 8月前

#1楼
发帖时间:2019-01-03 22:27:38   |   回复数:1
linyihuangwei
武林盟主
谢谢分享
8月前 #2楼
游客组