呆呆狐狸
超级版主

[合 集] [美国] [悬疑] [打包] [BT下载][国土安全/Homeland 第一至六季][全06季打包][英语英字][MKV][1080P][片源]

-->

◎译  名 国土安全/国土

◎片  名 Homeland

◎年  代 2011

◎国  家 美国

◎类  别 剧情/悬疑/惊悚

◎语  言 英语/阿拉伯语/西班牙语

◎上映日期 2011-10-02(美国)

◎IMDb评分  8.4/10 from 239,230 users

◎IMDb链接  http://www.imdb.com/title/tt1796960/

◎豆瓣评分 8.2/10 from 37,988 users

◎豆瓣链接 https://movie.douban.com/subject/5413527/

◎BT之家整理 http://www.btbtt.us/

◎片  长 55 分钟

◎导  演 迈克尔·科斯塔 Michael Cuesta / 丹尼尔·艾提奥斯 Daniel Attias / 杰弗利·纳赫马诺夫 Jeffrey Nachmanoff / 克拉克·约翰森 Clark Johnson / 布拉德·特纳 Brad Turner / 塔克·盖茨 Tucker Gates / 盖·费尔兰德 Guy Ferland

◎主  演 克莱尔·丹妮丝 Claire Danes

      戴米恩·路易斯 Damian Lewis

      曼迪·帕廷金 Mandy Patinkin

      莫瑞娜·巴卡琳 Morena Baccarin

      大卫·哈雷伍德 David Harewood

      迪亚哥·克莱特霍夫 Diego Klattenhoff

      摩根·塞勒 Morgan Saylor

      杰克逊·佩斯 Jackson Pace


◎简  介


  中情局反恐事务的特工Carrie(克莱尔·丹妮丝 Claire Danes 饰)在中东地区执行任务时,她的线向她透露了一个惊人的秘密:一名被俘的美军士兵已经变节,现在为基地组织效力,准备在美国本土策划发动恐怖袭击。几个月后,美国海军陆战队根据线报在阿富汗发现了被俘近九年的Nicholas Brody中士(戴米恩·路易斯 Damian Lewis 饰),荣归故里的Brody受到英雄般的礼遇。同时,Carrie也被中情局调回国内工作,并坚信Brody就是那个已经变节的士兵,从而暗中展开调查。

  Brody发现妻子妻子Jessica(莫瑞娜·巴卡琳 Morena Baccarin 饰)已与好友相恋,醋性大发的他与Carrie发生了关系。Carrie一方面爱上了这个男人,一方面还是对他存有疑心。究竟Brody是否变节?他与Carrie的关系将如何发展?


◎获奖情况


  第69届金球奖  (2012)

  电视类 最佳剧情类剧集

  电视类 剧情类剧集最佳男主角(提名) 戴米恩·路易斯

  电视类 剧情类剧集最佳女主角 克莱尔·丹妮丝


  第64届黄金时段艾美奖  (2012)

  剧情类 最佳剧集 Michael Klick / 吉迪恩·拉夫 / Avi Nir / Ran Telem / 霍华德·戈登 / 梅瑞狄斯·施蒂姆 / 阿莱克斯·甘萨 / 亨利·布拉默尔  / 迈克尔·科斯塔 / Alexander Cary / 奇普·乔内森

  剧情类 最佳男主角 戴米恩·路易斯

  剧情类 最佳女主角 克莱尔·丹妮丝

  剧情类 最佳导演(提名) 迈克尔·科斯塔

  剧情类 最佳编剧 吉迪恩·拉夫 / 霍华德·戈登 / 阿莱克斯·甘萨


Video
ID : 1
Format : HEVC
Format/Info : High Efficiency Video Coding
Format profile : [email protected]@Main
Codec ID : V_MPEGH/ISO/HEVC
Duration : 55 min 27 s
Bit rate : 7 523 kb/s
Width : 1 920 pixels
Height : 1 080 pixels
Display aspect ratio : 16:9
Frame rate mode : Constant
Frame rate : 23.976 (24000/1001) FPS
Standard : NTSC
Color space : YUV
Chroma subsampling : 4:2:0
Bit depth : 8 bits
Bits/(Pixel*Frame) : 0.151
Stream size : 2.91 GiB (92%)
Writing library : x265 0.0:[Linux][GCC 4.8.2][64 bit] 8bit+10bit+12bit
Encoding settings : cpuid=1173503 / frame-threads=1 / wpp / no-pmode / no-pme / psnr / ssim / log-level=2 / csvfn=/apollo/env/YoshiEncodingWorkflowActivitiesLinuxEncoding/var/tmp/1653029620/e6471176-16d0-4b3a-88d7-d75e073207b7/e61a9ce2-785a-4ded-966a-ab48dc91b81c_video_1080p_9000kbps.csv / csv-log-level=2 / input-csp=1 / input-res=1920x1080 / interlace=0 / total-frames=0 / level-idc=40 / high-tier=1 / uhd-bd=0 / ref=5 / no-allow-non-conformance / no-repeat-headers / annexb / no-aud / no-hrd / info / hash=0 / no-temporal-layers / no-open-gop / min-keyint=61 / keyint=120 / bframes=5 / b-adapt=2 / b-pyramid / bframe-bias=0 / rc-lookahead=120 / lookahead-slices=0 / scenecut=0 / no-intra-refresh / ctu=64 / min-cu-size=8 / rect / no-amp / max-tu-size=32 / tu-inter-depth=1 / tu-intra-depth=1 / limit-tu=0 / rdoq-level=2 / dynamic-rd=0.00 / no-ssim-rd / signhide / no-tskip / nr-intra=0 / nr-inter=200 / no-constrained-intra / strong-intra-smoothing / max-merge=3 / limit-refs=3 / limit-modes / me=3 / subme=3 / merange=57 / temporal-mvp / weightp / no-weightb / no-analyze-src-pics / deblock=0:0 / sao / no-sao-non-deblock / rd=4 / no-early-skip / rskip / no-fast-intra / no-tskip-fast / no-cu-lossless / no-b-intra / rdpenalty=0 / psy-rd=2.00 / psy-rdoq=1.00 / no-rd-refine / analysis-reuse-mode=0 / no-lossless / cbqpoffs=0 / crqpoffs=0 / rc=crf / crf=21.5 / qcomp=0.60 / qpstep=4 / stats-write=0 / stats-read=0 / vbv-maxrate=9000 / vbv-bufsize=12000 / vbv-init=0.9 / crf-max=0.0 / crf-min=0.0 / ipratio=1.40 / pbratio=1.30 / aq-mode=3 / aq-strength=2.00 / cutree / zone-count=0 / no-strict-cbr / qg-size=32 / no-rc-grain / qpmax=69 / qpmin=0 / no-const-vbv / sar=1 / overscan=0 / videoformat=2 / range=0 / colorprim=1 / transfer=1 / colormatrix=1 / chromaloc=0 / display-window=0 / max-cll=0,0 / min-luma=0 / max-luma=255 / log2-max-poc-lsb=8 / vui-timing-info / vui-hrd-info / slices=1 / opt-qp-pps / opt-ref-list-length-pps / no-multi-pass-opt-rps / scenecut-bias=0.05 / no-opt-cu-delta-qp / no-aq-motion / no-hdr / no-hdr-opt / no-dhdr10-opt / analysis-reuse-level=5 / scale-factor=0 / refine-intra=0 / refine-inter=0 / refine-mv=0 / no-limit-sao / ctu-info=0
Default : Yes
Forced : No
Color range : Limited
Color primaries : BT.709
Transfer characteristics : BT.709
Matrix coefficients : BT.709

Audio
ID : 2
Format : E-AC-3
Format/Info : Enhanced AC-3
Commercial name : Dolby Digital Plus
Codec ID : A_EAC3
Duration : 55 min 27 s
Bit rate mode : Constant
Bit rate : 640 kb/s
Channel(s) : 6 channels
Channel layout : L R C LFE Ls Rs
Sampling rate : 48.0 kHz
Frame rate : 31.250 FPS (1536 SPF)
Compression mode : Lossy
Stream size : 254 MiB (8%)
Language : English
Service kind : Complete Main
Default : Yes
Forced : No

Text
ID : 3
Format : UTF-8
Codec ID : S_TEXT/UTF8
Codec ID/Info : UTF-8 Plain Text
Duration : 54 min 32 s
Bit rate : 70 b/s
Count of elements : 985
Stream size : 28.2 KiB (0%)
Language : English
Default : No
Forced : No



WEBRip.DDP5.1.x265版


#1楼
发帖时间:2019-01-03 23:28:00   |   回复数:6
Damien
小有名气
还是喜欢呆呆狐狸版主发的片子
6月前 #2楼
ljylove
武林高手
恩,舒服!!!
6月前 #3楼
chiuyin
江湖小虾
靜候X265版本的第七季,謝謝呆呆狐狸版主!
6月前 #4楼
tvren
武林高手
这个找不到中文字幕啊。
5月前 #5楼
wade326
无名小卒
感谢分享优质片源!
2月前 #6楼
Eurus
武林高手
谢谢楼主分享资源
1月前 #7楼
游客组