呆呆狐狸
超级版主

[2018] [澳剧] [真人] [打包] [BT下载][民宿酒店/Instant hotel 第一季][全12集打包][英语英字][MKV][1080P][片源]

-->

◎译  名 民宿酒店 第一季

◎片  名 Instant hotel Season 1

◎年  代 2018

◎产  地 澳大利亚

◎类  别 真人秀

◎语  言 英语

◎上映日期 2018-12-28(美国)

◎IMDb评分 6.9/10 from 133 users

◎IMDb链接 http://www.imdb.com/title/tt9316032

◎BT之家整理 http://www.btbtt.us/

◎集  数 12

◎片  长 50分钟



◎简  介  


  A reality television series which began airing on the Seven Network, Australia and now a Netflix original series. The series follows homeowners who have transformed their homes into hotels and are individually judged by each other to receive the highest scores with the winner to win an ultimate prize.



Video
ID : 1
Format : AVC
Format/Info : Advanced Video Codec
Format profile : [email protected]
Format settings : CABAC / 3 Ref Frames
Format settings, CABAC : Yes
Format settings, ReFrames : 3 frames
Codec ID : V_MPEG4/ISO/AVC
Duration : 51 min 32 s
Bit rate : 7 344 kb/s
Width : 1 920 pixels
Height : 1 080 pixels
Display aspect ratio : 16:9
Frame rate mode : Constant
Frame rate : 25.000 FPS
Color space : YUV
Chroma subsampling : 4:2:0
Bit depth : 8 bits
Scan type : Progressive
Bits/(Pixel*Frame) : 0.142
Stream size : 2.64 GiB (98%)
Default : Yes
Forced : No

Audio
ID : 2
Format : E-AC-3
Format/Info : Enhanced AC-3
Commercial name : Dolby Digital Plus
Codec ID : A_EAC3
Duration : 51 min 32 s
Bit rate mode : Constant
Bit rate : 128 kb/s
Channel(s) : 2 channels
Channel layout : L R
Sampling rate : 48.0 kHz
Frame rate : 31.250 FPS (1536 SPF)
Compression mode : Lossy
Delay relative to video : -40 ms
Stream size : 47.2 MiB (2%)
Language : English
Service kind : Complete Main
Default : Yes
Forced : No



1 个附件 售价 大小 下载 时间

Instant.Hotel.S01.1080p.WEBRip.DDP2.0.x264-LABISH[btbtt.me].torrent 0 金币 72.90K 504 次 8月前

#1楼
发帖时间:2019-01-05 20:59:12   |   回复数:1
911degrees
隐世仙人♂
非常感谢,谢谢分享
8月前 #2楼
游客组