呆呆狐狸
超级版主

[2018] [美国] [真人] [打包] [BT下载][最后笑出声的人 LOL:Last One Laughing 第一季][全06集打包][英语英字][MKV][1080P][片源]

-->

◎译  名 最后笑出声的人

◎片  名 LOL: Last One Laughing

◎年  代 2018

◎产  地 美国

◎类  别 喜剧 / 真人秀

◎语  言 英语

◎IMDb评分 3.9/10 from 153 users

◎IMDb链接 http://www.imdb.com/title/tt8783862

◎BT之家整理 http://www.btbtt.us/

◎集  数 6

◎主  演 欧赫尼奥·德尔维斯 Eugenio Derbez



◎简  介  


  墨西哥男演员欧赫尼奥·德尔维斯加盟亚马逊一个喜剧节目《最后笑出声的人》(LOL: Last One Laughing,暂译)。该节目模仿松本人志出演并担任制作的一档“密室搞笑综艺”,十位喜剧演员在密室中互相逗笑,忍到最后笑的人才能赢得现金大奖。新节目共六集,德尔维斯将率领十位墨西哥喜剧演员上阵,该节目将于今年登陆亚马逊流媒体。


Video
ID : 1
Format : AVC
Format/Info : Advanced Video Codec
Format profile : [email protected]
Format settings : CABAC / 4 Ref Frames
Format settings, CABAC : Yes
Format settings, ReFrames : 4 frames
Codec ID : V_MPEG4/ISO/AVC
Duration : 37 min 8 s
Bit rate : 11.4 Mb/s
Width : 1 920 pixels
Height : 1 080 pixels
Display aspect ratio : 16:9
Frame rate mode : Constant
Frame rate : 23.976 (24000/1001) FPS
Color space : YUV
Chroma subsampling : 4:2:0
Bit depth : 8 bits
Scan type : Progressive
Bits/(Pixel*Frame) : 0.230
Stream size : 2.96 GiB (98%)
Default : Yes
Forced : No
Color range : Limited
Color primaries : BT.709
Transfer characteristics : BT.709
Matrix coefficients : BT.709

Audio
ID : 2
Format : E-AC-3
Format/Info : Enhanced AC-3
Commercial name : Dolby Digital Plus
Codec ID : A_EAC3
Duration : 37 min 8 s
Bit rate mode : Constant
Bit rate : 224 kb/s
Channel(s) : 2 channels
Channel layout : L R
Sampling rate : 48.0 kHz
Frame rate : 31.250 FPS (1536 SPF)
Compression mode : Lossy
Stream size : 59.5 MiB (2%)
Title : Español
Language : Spanish
Service kind : Complete Main
Default : No
Forced : No

Text #1
ID : 3
Format : UTF-8
Codec ID : S_TEXT/UTF8
Codec ID/Info : UTF-8 Plain Text
Duration : 36 min 4 s
Bit rate : 117 b/s
Count of elements : 902
Stream size : 31.0 KiB (0%)
Title : Español latino [Para sordos]
Language : Spanish
Default : No
Forced : No

Text #2
ID : 4
Format : UTF-8
Codec ID : S_TEXT/UTF8
Codec ID/Info : UTF-8 Plain Text
Duration : 36 min 5 s
Bit rate : 108 b/s
Count of elements : 764
Stream size : 28.7 KiB (0%)
Title : Inglés [Completos]
Language : English
Default : No
Forced : No

Text #3
ID : 5
Format : UTF-8
Codec ID : S_TEXT/UTF8
Codec ID/Info : UTF-8 Plain Text
Duration : 36 min 5 s
Bit rate : 104 b/s
Count of elements : 765
Stream size : 27.5 KiB (0%)
Title : Portugués brasileño [Completos]
Language : Portuguese
Default : No
Forced : No

Menu
00:00:00.000 : en:Amazon Original
00:00:05.000 : en:Disclaimer
00:00:11.000 : en:Scene 3
00:01:02.000 : en:Title Sequence
00:01:40.000 : en:Scene 5
00:03:04.000 : en:Scene 6
00:15:19.000 : en:Scene 7
00:22:50.000 : en:Scene 8
00:35:46.000 : en:Next Time
00:36:13.000 : en:End Credits



1 个附件 售价 大小 下载 时间

LOL.Last.One.Laughing.S01.SPANISH.1080p.AMZN.WEBRip.DDP2.0.x264-8CLAW[btbtt.me].torrent 0 金币 84.06K 406 次 8月前

#1楼
发帖时间:2019-01-11 17:41:06   |   回复数:1
911degrees
隐世仙人♂
非常感谢,谢谢分享
8月前 #2楼
游客组