呆呆狐狸
超级版主

[2016] [美国] [历史] [打包] [BT下载][美第奇家族:翡冷翠名门/Medici 第一季][全08集打包][英语无字][BD-MKV][720P/1080P][片源]

-->

◎译  名 美第奇家族:翡冷翠名门 第一季 / I Medici / Los Medici: Señores de Florencia / 美第奇家族:佛罗伦萨名门 / 美第奇:佛罗伦萨的主人

◎片  名 Medici: Masters of Florence Season 1

◎年  代 2016

◎产  地 英国 / 意大利 / 法国

◎类  别 剧情 / 历史

◎语  言 英语

◎上映日期 2016-10-17(意大利) / 2016-10-25(法国) / 2016-12-09(英国)

◎IMDb评分 7.9/10 from 10107 users

◎IMDb链接 http://www.imdb.com/title/tt5057130

◎豆瓣评分 8.2/10 from 4248 users

◎豆瓣链接 https://movie.douban.com/subject/26629153/

◎BT之家整理 http://www.btbtt.us/

◎集  数 8

◎片  长 60分钟

◎导  演 塞尔吉奥·米米卡-戈赞 Sergio Mimica-Gezzan

◎编  剧 尼古拉斯·梅耶 Nicholas Meyer / 弗兰克·斯伯特尼 Frank Spotnitz

◎主  演 理查德·麦登 Richard Madden

      达斯汀·霍夫曼 Dustin Hoffman

      圭多·卡普里诺 Guido Caprino

      Giorgio Caputo

      Stuart Martin

      安娜贝尔·斯考莉 Annabel Scholey

      塔蒂亚娜·伊内兹·纳尔多 Tatjana Inez Nardone

      莎拉·菲尔伯鲍姆 Sarah Felberbaum




◎简  介  


  丹尼尔·沙曼、布莱德利·詹姆斯加盟Netflix剧集《美第奇家族》第二季。沙曼饰演洛伦佐·德·梅第奇,詹姆斯扮演其弟朱利亚诺·德·梅第奇。本季故事围绕兄弟两人展开,他们想让佛罗伦萨成为金融、文化中心,同时还要和帕齐家族对抗。


Video
ID : 1
Format : AVC
Format/Info : Advanced Video Codec
Format profile : [email protected]
Format settings : CABAC / 4 Ref Frames
Format settings, CABAC : Yes
Format settings, ReFrames : 4 frames
Codec ID : V_MPEG4/ISO/AVC
Duration : 55 min 14 s
Bit rate : 9 821 kb/s
Width : 1 920 pixels
Height : 1 040 pixels
Display aspect ratio : 1.85:1
Frame rate mode : Constant
Frame rate : 25.000 FPS
Color space : YUV
Chroma subsampling : 4:2:0
Bit depth : 8 bits
Scan type : Progressive
Bits/(Pixel*Frame) : 0.197
Stream size : 3.79 GiB (87%)
Writing library : x264 core 157 r2935 545de2f
Encoding settings : cabac=1 / ref=4 / deblock=1:0:0 / analyse=0x3:0x113 / me=umh / subme=8 / psy=1 / psy_rd=1.00:0.00 / mixed_ref=1 / me_range=16 / chroma_me=1 / trellis=2 / 8x8dct=1 / cqm=0 / deadzone=21,11 / fast_pskip=0 / chroma_qp_offset=-2 / threads=32 / lookahead_threads=5 / sliced_threads=0 / nr=0 / decimate=1 / interlaced=0 / bluray_compat=0 / constrained_intra=0 / bframes=3 / b_pyramid=2 / b_adapt=1 / b_bias=0 / direct=3 / weightb=1 / open_gop=0 / weightp=2 / keyint=250 / keyint_min=25 / scenecut=40 / intra_refresh=0 / rc_lookahead=50 / rc=2pass / mbtree=1 / bitrate=9821 / ratetol=1.0 / qcomp=0.60 / qpmin=0 / qpmax=69 / qpstep=4 / cplxblur=20.0 / qblur=0.5 / ip_ratio=1.40 / aq=1:1.00
Default : Yes
Forced : No

Audio
ID : 2
Format : DTS
Format/Info : Digital Theater Systems
Codec ID : A_DTS
Duration : 55 min 14 s
Bit rate mode : Constant
Bit rate : 1 509 kb/s
Channel(s) : 6 channels
Channel layout : C L R Ls Rs LFE
Sampling rate : 48.0 kHz
Frame rate : 93.750 FPS (512 SPF)
Bit depth : 24 bits
Compression mode : Lossy
Stream size : 596 MiB (13%)
Title : English
Language : English
Default : No
Forced : No

Menu
00:00:00.000 : en:00:00:00.000
00:01:02.880 : en:00:01:02.880
00:11:37.440 : en:00:11:37.440
00:29:28.920 : en:00:29:28.920
00:40:35.200 : en:00:40:35.200
00:52:02.560 : en:00:52:02.560



2 个附件 售价 大小 下载 时间

Medici.Masters.Of.Florence.S01.720p.BluRay.x264-LATENCY[btbtt.me].torrent 0 金币 88.55K 553 次 5月前

Medici.Masters.Of.Florence.S01.1080p.BluRay.x264-LATENCY[btbtt.me].torrent 0 金币 88.62K 945 次 5月前

#1楼
发帖时间:2019-01-12 23:57:27   |   回复数:2
911degrees
隐世仙人♂
非常感谢,谢谢分享
5月前 #2楼
yet7677
小有名气
下载没速度呀
5月前 #3楼
游客组