呆呆狐狸
超级版主

[2016] [美国] [真人] [打包] [BT下载][大世界之旅/伟大的旅程 The Grand Tour 第一季][全13集打包][英语英字][MKV][1080P][片源]

-->

◎译  名 大世界之旅 第一季 / 伟大的旅程

◎片  名 The Grand Tour Season 1

◎年  代 2016

◎产  地 英国

◎类  别 真人秀

◎语  言 英语

◎上映日期 2016-11-18(英国)

◎IMDb评分 8.7/10 from 49624 users

◎IMDb链接 http://www.imdb.com/title/tt5712554

◎豆瓣评分 9.4/10 from 2189 users

◎豆瓣链接 https://movie.douban.com/subject/26791670/

◎BT之家整理 http://www.51btbtt.com/

◎集  数 13

◎片  长 60分钟

◎导  演 菲尔·查沃德 Phil Churchward / 布赖恩·克莱因 Brian Klein / 凯特·林奇·罗宾森 Kit Lynch Robinson

◎主  演 杰里米·克拉克森 Jeremy Clarkson

      理查德·哈蒙德 Richard Hammond

      詹姆斯·梅 James May

      Mike Skinner




◎简  介  


  Top Gear原三人组的新秀,定名为The Grand Tour,今年秋季开播。


Video
ID : 1
Format : AVC
Format/Info : Advanced Video Codec
Format profile : [email protected]
Format settings : CABAC / 4 Ref Frames
Format settings, CABAC : Yes
Format settings, ReFrames : 4 frames
Codec ID : V_MPEG4/ISO/AVC
Duration : 1 h 11 min
Bit rate mode : Variable
Bit rate : 11.3 Mb/s
Maximum bit rate : 15.0 Mb/s
Width : 1 920 pixels
Height : 1 080 pixels
Display aspect ratio : 16:9
Frame rate mode : Constant
Frame rate : 23.976 (24000/1001) FPS
Color space : YUV
Chroma subsampling : 4:2:0
Bit depth : 8 bits
Scan type : Progressive
Bits/(Pixel*Frame) : 0.227
Stream size : 5.61 GiB (95%)
Default : Yes
Forced : No
Color range : Limited
Color primaries : BT.709
Transfer characteristics : BT.709
Matrix coefficients : BT.709

Audio
ID : 2
Format : E-AC-3
Format/Info : Enhanced AC-3
Commercial name : Dolby Digital Plus
Codec ID : A_EAC3
Duration : 1 h 11 min
Bit rate mode : Constant
Bit rate : 640 kb/s
Channel(s) : 6 channels
Channel layout : L R C LFE Ls Rs
Sampling rate : 48.0 kHz
Frame rate : 31.250 FPS (1536 SPF)
Compression mode : Lossy
Stream size : 325 MiB (5%)
Language : English
Service kind : Complete Main
Default : Yes
Forced : No

Text #1
ID : 3
Format : UTF-8
Codec ID : S_TEXT/UTF8
Codec ID/Info : UTF-8 Plain Text
Duration : 1 h 10 min
Bit rate : 72 b/s
Count of elements : 1104
Stream size : 37.3 KiB (0%)
Language : English
Default : No
Forced : No

Text #2
ID : 4
Format : UTF-8
Codec ID : S_TEXT/UTF8
Codec ID/Info : UTF-8 Plain Text
Duration : 1 h 10 min
Bit rate : 74 b/s
Count of elements : 1171
Stream size : 38.9 KiB (0%)
Title : SDH
Language : English
Default : No
Forced : No

Menu
00:00:00.000 : en:Amazon Original
00:00:04.000 : en:I can see clearly now
00:04:59.000 : en:Three men who need no introduction
00:07:22.000 : en:A small montage of what you can expect over the next 12 weeks
00:09:16.000 : en:This is our new traveling studio tent
00:10:02.000 : en:Welcome to the first ever grand tour
00:14:02.000 : en:The McLaren P1 versus the Porsche 918
00:20:47.000 : en:The Ferrari LaFerrari
00:22:28.000 : en:The Hypercar Holy Trinity
00:30:25.000 : en:It\'s a segment that we are calling Conversation Street
00:33:53.000 : en:Our new track is brilliant, fast, and extremely dangerous
00:37:03.000 : en:BMW M2 versus the Eboladrome
00:41:30.000 : en:Introducing \"The American\"
00:43:19.000 : en:The American tests the BMW M2
00:44:47.000 : en:We\'re calling it Celebrity Brain Crash
00:53:40.000 : en:Which hybrid hypercar is the best?
01:06:48.000 : en:Hybrid hypercar final results
01:10:24.000 : en:End Credits



2 个附件 售价 大小 下载 时间

The.Grand.Tour.2016.S01.720p.AMZN.WEBRip.DDP5.1.x264-NTb[btbtt.me].torrent 0 金币 62.47K 581 次 7月前

The.Grand.Tour.2016.S01.1080p.AMZN.WEBRip.DDP5.1.x264-NTb[btbtt.me].torrent 0 金币 161.71K 917 次 7月前

#1楼
发帖时间:2019-01-24 11:27:55   |   回复数:2
911degrees
隐世仙人♂
非常感谢,谢谢分享
7月前 #2楼
lk3k
小有名气
这个好~!谢谢楼主,辛苦了~!有第二季么?!三贱客到了Amazon,放飞自我了~!
7月前 #3楼
游客组