呆呆狐狸
超级版主

[2016] [美国] [真人] [打包] [BT下载][大世界之旅/伟大的旅程 The Grand Tour 第一季][全13集打包][英语英字][MKV][2160P][片源]

-->


◎译  名 大世界之旅 第一季 / 伟大的旅程

◎片  名 The Grand Tour Season 1

◎年  代 2016

◎产  地 英国

◎类  别 真人秀

◎语  言 英语

◎上映日期 2016-11-18(英国)

◎IMDb评分 8.7/10 from 49624 users

◎IMDb链接 http://www.imdb.com/title/tt5712554

◎豆瓣评分 9.4/10 from 2189 users

◎豆瓣链接 https://movie.douban.com/subject/26791670/

◎BT之家整理 http://www.51btbtt.com/

◎集  数 13

◎片  长 60分钟

◎导  演 菲尔·查沃德 Phil Churchward / 布赖恩·克莱因 Brian Klein / 凯特·林奇·罗宾森 Kit Lynch Robinson

◎主  演 杰里米·克拉克森 Jeremy Clarkson

      理查德·哈蒙德 Richard Hammond

      詹姆斯·梅 James May

      Mike Skinner




◎简  介  


  Top Gear原三人组的新秀,定名为The Grand Tour


Video
ID : 1
Format : AVC
Format/Info : Advanced Video Codec
Format profile : [email protected]
Format settings : CABAC / 5 Ref Frames
Format settings, CABAC : Yes
Format settings, ReFrames : 5 frames
Codec ID : V_MPEG4/ISO/AVC
Duration : 1 h 11 min
Bit rate : 52.4 Mb/s
Width : 3 840 pixels
Height : 2 160 pixels
Display aspect ratio : 16:9
Frame rate mode : Constant
Frame rate : 23.976 (24000/1001) FPS
Color space : YUV
Chroma subsampling : 4:2:0
Bit depth : 8 bits
Scan type : Progressive
Bits/(Pixel*Frame) : 0.263
Stream size : 26.0 GiB (99%)
Writing library : x264 core 148 r2638 7599210
Encoding settings : cabac=1 / ref=5 / deblock=1:-3:-3 / analyse=0x3:0x133 / me=umh / subme=10 / psy=1 / psy_rd=1.00:0.00 / mixed_ref=1 / me_range=48 / chroma_me=1 / trellis=2 / 8x8dct=1 / cqm=0 / deadzone=21,11 / fast_pskip=1 / chroma_qp_offset=-2 / threads=12 / lookahead_threads=2 / sliced_threads=0 / nr=0 / decimate=0 / interlaced=0 / bluray_compat=0 / constrained_intra=0 / bframes=8 / b_pyramid=2 / b_adapt=2 / b_bias=0 / direct=3 / weightb=1 / open_gop=0 / weightp=2 / keyint=240 / keyint_min=23 / scenecut=40 / intra_refresh=0 / rc_lookahead=60 / rc=crf / mbtree=1 / crf=17.0 / qcomp=0.70 / qpmin=0 / qpmax=69 / qpstep=4 / ip_ratio=1.40 / aq=1:0.70
Default : Yes
Forced : No

Audio
ID : 2
Format : E-AC-3
Format/Info : Enhanced AC-3
Commercial name : Dolby Digital Plus
Codec ID : A_EAC3
Duration : 1 h 11 min
Bit rate mode : Constant
Bit rate : 640 kb/s
Channel(s) : 6 channels
Channel layout : L R C LFE Ls Rs
Sampling rate : 48.0 kHz
Frame rate : 31.250 FPS (1536 SPF)
Compression mode : Lossy
Stream size : 325 MiB (1%)
Language : English
Service kind : Complete Main
Default : Yes
Forced : No

Text
ID : 3
Format : UTF-8
Codec ID : S_TEXT/UTF8
Codec ID/Info : UTF-8 Plain Text
Duration : 1 h 10 min
Bit rate : 75 b/s
Count of elements : 1171
Stream size : 39.1 KiB (0%)
Language : English
Default : Yes
Forced : No



1 个附件 售价 大小 下载 时间

The.Grand.Tour.S01.2160p.AMZN.WEBRip.DDP5.1.x264-TrollUHD[btbtt.me].torrent 0 金币 656.24K 917 次 7月前

#1楼
发帖时间:2019-02-01 12:10:53   |   回复数:0
游客组