呆呆狐狸
超级版主

[合 集] [美国] [真人] [打包] [BT下载][锻刀大赛 利刃争霸/Forged in Fire 第一至二季][全02季打包][英语英字][MKV][1080P][片源]

-->


◎译  名 锻刀大赛 利刃争霸 第一季

◎片  名 Forged In Fire: Knife Or Death Season 1

◎年  代 2018

◎产  地 美国

◎类  别 真人秀

◎语  言 英语

◎上映日期 2018-04-17(美国)

◎IMDb评分 6.3/10 from 82 users

◎IMDb链接 http://www.imdb.com/title/tt8817836

◎BT之家整理 http://www.51btbtt.com/

◎片  长 48分钟

◎主  演 比尔·戈德博格 Bill Goldberg




◎简  介  


  由WWE名人堂的比尔·高柏主持的最新比赛系列Forged in Fire: Knife or Death,参赛者由全国顶尖的刀匠,武术家和刀具专家,甚至屠夫组成,他们將使用自已的刀具参与最艰巨的障碍赛,只有一人将有机会赢得20000美元大奖并被冠上knife or death冠军。


Video
ID : 1
Format : AVC
Format/Info : Advanced Video Codec
Format profile : [email protected]
Format settings : CABAC / 4 Ref Frames
Format settings, CABAC : Yes
Format settings, ReFrames : 4 frames
Codec ID : V_MPEG4/ISO/AVC
Duration : 42 min 36 s
Bit rate : 5 903 kb/s
Width : 1 920 pixels
Height : 1 080 pixels
Display aspect ratio : 16:9
Frame rate mode : Constant
Frame rate : 23.976 (24000/1001) FPS
Color space : YUV
Chroma subsampling : 4:2:0
Bit depth : 8 bits
Scan type : Progressive
Bits/(Pixel*Frame) : 0.119
Stream size : 1.76 GiB (99%)
Default : Yes
Forced : No

Audio
ID : 2
Format : AAC LC SBR
Format/Info : Advanced Audio Codec Low Complexity with Spectral Band Replication
Commercial name : HE-AAC
Format settings : Explicit
Codec ID : A_AAC-2
Duration : 42 min 36 s
Bit rate : 64.0 kb/s
Channel(s) : 2 channels
Channel layout : L R
Sampling rate : 48.0 kHz
Frame rate : 23.438 FPS (2048 SPF)
Compression mode : Lossy
Stream size : 19.5 MiB (1%)
Language : English
Default : Yes
Forced : No

Text
ID : 3
Format : UTF-8
Codec ID : S_TEXT/UTF8
Codec ID/Info : UTF-8 Plain Text
Duration : 42 min 24 s
Bit rate : 126 b/s
Count of elements : 1129
Stream size : 39.2 KiB (0%)
Title : English (SDH)
Language : English
Default : No
Forced : No




#1楼
发帖时间:2019-02-08 00:32:51   |   回复数:1
chulps
一代宗师
~ 感谢分享 ~ 感谢 ~
7月前 #2楼
游客组