呆呆狐狸
隐世仙人♂

[2011] [美国] [纪录] [打包] [BT下载][高清越战/Vietnam in HD 第一季][全06集打包][英语无字][BD-MKV][720P/1080P][片源]

-->


◎译  名 高清越战 第一季 / 高清越战

◎片  名 Vietnam in HD Season 1

◎年  代 2011

◎产  地 美国

◎类  别 纪录片 / 历史 / 战争

◎语  言 英语

◎上映日期 2011-11-08

◎IMDb评分 8.3/10 from 1221 users

◎IMDb链接 http://www.imdb.com/title/tt2109059

◎豆瓣评分 8.3/10 from 270 users

◎豆瓣链接 https://movie.douban.com/subject/7051459/

◎BT之家整理 http://www.51btbtt.com/

◎集  数 6

◎片  长 60分钟

◎导  演 Sammy Jackson

◎编  剧 Sammy Jackson

◎主  演 胡志明 Hồ Chí Minh




◎简  介  


  为纪念退伍军人节,历史频道首映一部新的长达六个小时的关于越南战争的系列记录片,详细记录了越南战争的始末,很多资料都是首次披露,其中还包含了大量越战记者拍摄的战地录象....


Video
ID : 1
Format : AVC
Format/Info : Advanced Video Codec
Format profile : [email protected]
Format settings : CABAC / 4 Ref Frames
Format settings, CABAC : Yes
Format settings, ReFrames : 4 frames
Codec ID : V_MPEG4/ISO/AVC
Duration : 1 h 24 min
Bit rate : 11.5 Mb/s
Width : 1 920 pixels
Height : 1 080 pixels
Display aspect ratio : 16:9
Frame rate mode : Constant
Frame rate : 23.976 (24000/1001) FPS
Color space : YUV
Chroma subsampling : 4:2:0
Bit depth : 8 bits
Scan type : Progressive
Bits/(Pixel*Frame) : 0.231
Stream size : 6.61 GiB (86%)
Writing library : x264 core 120 r2120 0c7dab9
Encoding settings : cabac=1 / ref=4 / deblock=1:-1:-1 / analyse=0x3:0x133 / me=umh / subme=9 / psy=1 / psy_rd=1.00:0.15 / mixed_ref=1 / me_range=16 / chroma_me=1 / trellis=2 / 8x8dct=1 / cqm=0 / deadzone=21,11 / fast_pskip=0 / chroma_qp_offset=-3 / threads=14 / sliced_threads=0 / nr=0 / decimate=1 / interlaced=0 / bluray_compat=0 / constrained_intra=0 / bframes=3 / b_pyramid=2 / b_adapt=1 / b_bias=0 / direct=3 / weightb=1 / open_gop=0 / weightp=2 / keyint=240 / keyint_min=24 / scenecut=40 / intra_refresh=0 / rc_lookahead=40 / rc=2pass / mbtree=1 / bitrate=11474 / ratetol=1.0 / qcomp=0.60 / qpmin=0 / qpmax=69 / qpstep=4 / cplxblur=20.0 / qblur=0.5 / ip_ratio=1.40 / aq=1:1.00
Language : English
Default : No
Forced : No

Audio
ID : 2
Format : DTS
Format/Info : Digital Theater Systems
Codec ID : A_DTS
Duration : 1 h 24 min
Bit rate mode : Constant
Bit rate : 1 509 kb/s
Channel(s) : 6 channels
Channel layout : C L R Ls Rs LFE
Sampling rate : 48.0 kHz
Frame rate : 93.750 FPS (512 SPF)
Bit depth : 24 bits
Compression mode : Lossy
Stream size : 911 MiB (12%)
Default : Yes
Forced : No

Menu
00:00:00.000 : en:Training and Withdrawing
00:12:18.947 : en:Full Alert
00:21:43.719 : en:Vietnamization
00:29:58.547 : en:Invading Cambodia
00:38:58.002 : en:Right Way Out
00:53:44.555 : en:Graduation Exercise
01:02:10.602 : en:Paris Peace Accords
01:10:04.659 : en:Fall of Saigon
01:19:29.181 : en:Veteran Pride



2 个附件 售价 大小 下载 时间

Vietnam.in.HD.S01.720p.Bluray.x264-DiVERGE[btbtt.me].torrent 0 金币 66.29K 1442 次 8月前

Vietnam.in.HD.S01.1080p.Bluray.x264-DiVERGE[btbtt.me].torrent 0 金币 58.11K 2051 次 8月前

#1楼
发帖时间:2019-02-09 19:58:08   |   回复数:1
二月妙
一派掌门


那个年代那场战争,很写实

8月前 #2楼
游客组