呆呆狐狸
超级版主

[2019] [英国] [犯罪] [打包] [BT下载][布朗神父/Father Brown 第七季][全10集打包][英语无字][BD-MKV][720P/1080P][片源]

-->

◎译  名 布朗神父 第七季

◎片  名 Father Brown S07

◎年  代 2019

◎产  地 英国

◎类  别 剧情/犯罪/悬疑

◎语  言 英语

◎BT之家整理 http://www.51btbtt.com/

◎片  长 50分钟

◎导  演 Piotr Szkopiak

◎主  演 马克·威廉姆斯 Mark Williams

      索查·库萨克 Sorcha Cusack


◎简  介


  Father Brown(Mark Williams饰演,他是哈利珀特系列里的 Arthur Weasley 英国喜剧演员,编剧和主持人)

  是切斯特顿笔下的著名侦探,矮个子,圆脑袋,身材胖儿可爱。手边常有一把标志性的大雨伞,他天性怕羞,说话有些结巴,看起来憨厚纯真,似乎与探案不搭边,却大智若愚,有着很锐利的直觉。


Video
ID : 1
Format : AVC
Format/Info : Advanced Video Codec
Format profile : [email protected]
Format settings : CABAC / 5 Ref Frames
Format settings, CABAC : Yes
Format settings, ReFrames : 5 frames
Codec ID : V_MPEG4/ISO/AVC
Duration : 45 min 4 s
Bit rate : 6 294 kb/s
Width : 1 280 pixels
Height : 720 pixels
Display aspect ratio : 16:9
Frame rate mode : Constant
Frame rate : 25.000 FPS
Color space : YUV
Chroma subsampling : 4:2:0
Bit depth : 8 bits
Scan type : Progressive
Bits/(Pixel*Frame) : 0.273
Stream size : 1.98 GiB (91%)
Writing library : x264 core 157 r2935 545de2f
Encoding settings : cabac=1 / ref=5 / deblock=1:-3:-3 / analyse=0x3:0x113 / me=umh / subme=8 / psy=1 / psy_rd=1.00:0.00 / mixed_ref=1 / me_range=16 / chroma_me=1 / trellis=1 / 8x8dct=1 / cqm=0 / deadzone=21,11 / fast_pskip=1 / chroma_qp_offset=-2 / threads=22 / lookahead_threads=3 / sliced_threads=0 / nr=0 / decimate=1 / interlaced=0 / bluray_compat=0 / constrained_intra=0 / bframes=3 / b_pyramid=2 / b_adapt=2 / b_bias=0 / direct=3 / weightb=1 / open_gop=0 / weightp=2 / keyint=250 / keyint_min=25 / scenecut=40 / intra_refresh=0 / rc_lookahead=50 / rc=2pass / mbtree=1 / bitrate=6294 / ratetol=1.0 / qcomp=0.60 / qpmin=0 / qpmax=69 / qpstep=4 / cplxblur=20.0 / qblur=0.5 / ip_ratio=1.40 / aq=3:0.80
Default : Yes
Forced : No

Audio
ID : 2
Format : AC-3
Format/Info : Audio Coding 3
Commercial name : Dolby Digital
Codec ID : A_AC3
Duration : 45 min 4 s
Bit rate mode : Constant
Bit rate : 640 kb/s
Channel(s) : 2 channels
Channel layout : L R
Sampling rate : 48.0 kHz
Frame rate : 31.250 FPS (1536 SPF)
Bit depth : 16 bits
Compression mode : Lossy
Stream size : 206 MiB (9%)
Language : English
Service kind : Complete Main
Default : Yes
Forced : No

Menu
00:00:00.000 : en:Chapter 01
00:11:32.200 : en:Chapter 02
00:21:46.400 : en:Chapter 03
00:36:02.840 : en:Chapter 04



2 个附件 售价 大小 下载 时间

Father.Brown.2013.S07.720p.BluRay.x264-SHORTBREHD[btbtt.me].torrent 0 金币 83.22K 245 次 6月前

Father.Brown.2013.S07.1080p.BluRay.x264-SHORTBREHD[btbtt.me].torrent 0 金币 82.00K 343 次 6月前

#1楼
发帖时间:2019-02-11 21:44:01   |   回复数:2
呆呆狐狸
超级版主
追加1080P
6月前 #2楼
911degrees
隐世仙人♂
非常感谢,谢谢分享
6月前 #3楼
游客组