呆呆狐狸
超级版主

[2014] [加剧] [喜剧] [打包] [BT下载][The Best Laid Plans 第一季][全06集打包][英语无字][MKV][720P][片源]

-->


◎译  名 

◎片  名 The Best Laid Plans Season 1

◎年  代 2014

◎产  地 加拿大

◎类  别 喜剧

◎语  言 英语

◎上映日期 2014-01-05

◎IMDb评分 6.0/10 from 147 users

◎IMDb链接 http://www.imdb.com/title/tt2820078

◎BT之家整理 http://www.51btbtt.com/

◎集  数 6

◎导  演 Peter Moss / James Allodi

◎编  剧 Susan Coyne / Jason Sherman

◎主  演 Jonas Chernick

      Kenneth Welsh

      Sarah Allen




◎简  介  


  In order to get out of national politics| a disillusioned speechwriter runs a federal election campaign in a supposedly hopeless riding with an eccentric candidate.


Video
ID : 1
Format : AVC
Format/Info : Advanced Video Codec
Format profile : High@L3.1
Format settings : 2 Ref Frames
Format settings, CABAC : No
Format settings, ReFrames : 2 frames
Codec ID : V_MPEG4/ISO/AVC
Duration : 44 min 1 s
Bit rate : 4 030 kb/s
Width : 1 280 pixels
Height : 720 pixels
Display aspect ratio : 16:9
Frame rate mode : Constant
Frame rate : 23.976 FPS
Color space : YUV
Chroma subsampling : 4:2:0
Bit depth : 8 bits
Scan type : Progressive
Bits/(Pixel*Frame) : 0.182
Stream size : 1.24 GiB (89%)
Language : English
Default : Yes
Forced : No
Color range : Limited
Color primaries : BT.709
Transfer characteristics : BT.709
Matrix coefficients : BT.709

Audio
ID : 2
Format : AC-3
Format/Info : Audio Coding 3
Commercial name : Dolby Digital
Codec ID : A_AC3
Duration : 44 min 1 s
Bit rate mode : Constant
Bit rate : 384 kb/s
Channel(s) : 6 channels
Channel layout : L R C LFE Ls Rs
Sampling rate : 48.0 kHz
Frame rate : 31.250 FPS (1536 SPF)
Bit depth : 16 bits
Compression mode : Lossy
Stream size : 121 MiB (9%)
Language : English
Service kind : Complete Main
Default : Yes
Forced : No



1 个附件 售价 大小 下载 时间

The.Best.Laid.Plans.S01.720p.WEB-DL.DD5.1.H264-jAh[btbtt.me].torrent 0 金币 41.50K 91 次 7天前

#1楼
发帖时间:2019-02-11 23:21:10   |   回复数:2
911degrees
隐世仙人♂
非常感谢,谢谢分享
6天前 #2楼
金枪西门庆
一派掌门
感谢大大分享,支持发布。
6天前 #3楼
游客组