呆呆狐狸
超级版主

[2018] [美国] [喜剧] [打包] [BT下载][青春及后果/Youth and Consequences 第一季][全08集打包][英语无字][MKV][1080P/2160P][片源]

-->


◎译  名 青春及后果

◎片  名 Youth and Consequences

◎年  代 2018

◎产  地 美国

◎类  别 剧情 / 喜剧

◎语  言 英语

◎上映日期 2018-03-07(美国)

◎IMDb评分 7.4/10 from 321 users

◎IMDb链接 http://www.imdb.com/title/tt6453190

◎BT之家整理 http://www.51btbtt.com/

◎集  数 8

◎片  长 30

◎导  演 Jason Ubaldi

◎编  剧 Jason Ubaldi

◎主  演 安娜·阿卡娜 Anna Akana

      肖恩·戈兰迪洛 Sean Grandillo

      佩珀·柯达 Piper Curda

      莎凡娜·杰德 Savannah Jayde

      Teresa Duran-Norvick

      Sophie Reynolds

      卡拉·罗伊斯特 Kara Royster

      麦克·格雷 Mike Gray

      玛西亚·克劳斯 Marcia Cross

      加利·艾尔维斯 Cary Elwes

      素玛立·蒙塔诺 Sumalee Montano

      Ashley Parker

      卡兰·布拉尔 Karan Brar

      Allie Rae Treharne

      Jennifer Grzybowski

      莫西斯·斯托姆 Moses Storm

      奥斯丁·R·格兰特 Austin R. Grant




◎简  介  


  At Central Rochester High, a teen girl struggles for power within the school system.


Video
ID : 1
Format : AVC
Format/Info : Advanced Video Codec
Format profile : [email protected]
Format settings : CABAC / 2 Ref Frames
Format settings, CABAC : Yes
Format settings, ReFrames : 2 frames
Codec ID : V_MPEG4/ISO/AVC
Duration : 34 min 23 s
Bit rate : 2 647 kb/s
Width : 1 920 pixels
Height : 1 080 pixels
Display aspect ratio : 16:9
Frame rate mode : Constant
Frame rate : 23.976 (24000/1001) FPS
Color space : YUV
Chroma subsampling : 4:2:0
Bit depth : 8 bits
Scan type : Progressive
Bits/(Pixel*Frame) : 0.053
Stream size : 651 MiB (87%)
Language : English
Default : Yes
Forced : No
Color range : Limited
Color primaries : BT.709
Transfer characteristics : BT.709
Matrix coefficients : BT.709

Audio
ID : 2
Format : AAC LC
Format/Info : Advanced Audio Codec Low Complexity
Codec ID : A_AAC-2
Duration : 34 min 23 s
Bit rate : 384 kb/s
Channel(s) : 6 channels
Channel layout : C L R Ls Rs LFE
Sampling rate : 48.0 kHz
Frame rate : 46.875 FPS (1024 SPF)
Compression mode : Lossy
Stream size : 94.4 MiB (13%)
Language : English
Default : Yes
Forced : No




2 个附件 售价 大小 下载 时间

Youth.and.Consequences.S01.1080p.RED.WEBRip.AAC5.1.x264-MEMENTO[btbtt.me].torrent 0 金币 51.02K 315 次 2月前

Youth.and.Consequences.S01.2160p.RED.WEBRip.AAC5.1.VP9-DEEP[btbtt.me].torrent 0 金币 99.75K 238 次 2月前

#1楼
发帖时间:2019-02-11 23:23:52   |   回复数:2
911degrees
隐世仙人♂
非常感谢,谢谢分享
2月前 #2楼
金枪西门庆
一派掌门
感谢楼主的分享,收藏了。
2月前 #3楼
游客组