呆呆狐狸
超级版主

[2013] [英国] [历史] [打包] [BT下载][白王后/The White Queen 第一季][全10集打包][英语英字][BD-MKV][720P/1080P][片源]

-->


◎译  名 白王后 / 白玫瑰皇后 / 白皇后

◎片  名 The White Queen

◎年  代 2013

◎产  地 英国

◎类  别 传记 / 历史

◎语  言 英语

◎上映日期 2013-06-16

◎IMDb评分 7.8/10 from 20057 users

◎IMDb链接 http://www.imdb.com/title/tt2372220

◎豆瓣评分 7.4/10 from 8107 users

◎豆瓣链接 https://movie.douban.com/subject/16468207/

◎集  数 10

◎片  长 60分钟

◎导  演 詹姆斯·肯特 James Kent

◎编  剧 Emma Frost / Philippa Gregory

◎主  演 马克斯·艾恩斯 Max Irons

      Rebecca Ferguson

      阿纽林·巴纳德 Aneurin Barnard

      阿曼达·哈尔 Amanda Hale

      Faye Marsay

      大卫·奥克斯 David Oakes

      珍妮·麦克蒂尔 Janet McTeer

      詹姆斯·弗莱恩 James Frain



◎标  签 英剧 | 历史 | BBC | 玫瑰战争 | 英国 | 看过的电视剧 | 2013 | 电视剧


◎简  介  


  根据Philippa Gregory畅销小说改编,讲述英国著名的“玫瑰战争”期间,三个卷入冲突之中的女人的故事。剧集将从1464年开始,约克家族和兰开斯特家族为争夺王位已经开战九年。伊丽莎白·伍德维尔、玛格丽特·博福特和安妮·内维尔是三位女性主角。她们卷入了这场权力的争夺,并将在幕后操纵历史的轨迹。


◎获奖情况  


  第71届金球奖(2014)

  电视类 最佳迷你剧/电视电影(提名)

  电视类 迷你剧/电视电影最佳女主角(提名) 丽贝卡·弗格森

  电视类 最佳女配角(提名) 珍妮·麦克蒂尔


  第66届黄金时段艾美奖(2014)

  迷你剧/电视电影 最佳迷你剧(提名)


  第28届美国摄影协会奖(2014)

  电视电影/迷你剧最佳摄影(提名) David Luther


  第18届金卫星奖(2014)

  电视部门 最佳迷你剧/电视电影(提名)


Video
ID : 2
Format : AVC
Format/Info : Advanced Video Codec
Format profile : [email protected]
Format settings : CABAC / 4 Ref Frames
Format settings, CABAC : Yes
Format settings, ReFrames : 4 frames
Codec ID : V_MPEG4/ISO/AVC
Duration : 58 min 12 s
Bit rate : 9 268 kb/s
Width : 1 920 pixels
Height : 1 080 pixels
Display aspect ratio : 16:9
Frame rate mode : Constant
Frame rate : 25.000 FPS
Color space : YUV
Chroma subsampling : 4:2:0
Bit depth : 8 bits
Scan type : Progressive
Bits/(Pixel*Frame) : 0.179
Stream size : 3.67 GiB (84%)
Writing library : x264 core 142 r2389 956c8d8
Encoding settings : cabac=1 / ref=4 / deblock=1:0:0 / analyse=0x3:0x133 / me=umh / subme=7 / psy=1 / psy_rd=1.00:0.00 / mixed_ref=1 / me_range=16 / chroma_me=1 / trellis=1 / 8x8dct=1 / cqm=0 / deadzone=21,11 / fast_pskip=0 / chroma_qp_offset=-2 / threads=6 / lookahead_threads=1 / sliced_threads=0 / nr=0 / decimate=1 / interlaced=0 / bluray_compat=0 / constrained_intra=0 / bframes=3 / b_pyramid=2 / b_adapt=2 / b_bias=0 / direct=3 / weightb=1 / open_gop=0 / weightp=2 / keyint=250 / keyint_min=25 / scenecut=40 / intra_refresh=0 / rc_lookahead=50 / rc=2pass / mbtree=1 / bitrate=9268 / ratetol=1.0 / qcomp=0.60 / qpmin=0 / qpmax=69 / qpstep=4 / cplxblur=20.0 / qblur=0.5 / ip_ratio=1.40 / aq=1:1.00
Language : English
Default : Yes
Forced : No

Audio
ID : 1
Format : DTS
Format/Info : Digital Theater Systems
Codec ID : A_DTS
Duration : 58 min 12 s
Bit rate mode : Constant
Bit rate : 1 509 kb/s
Channel(s) : 6 channels
Channel layout : C L R Ls Rs LFE
Sampling rate : 48.0 kHz
Frame rate : 93.750 FPS (512 SPF)
Bit depth : 24 bits
Compression mode : Lossy
Stream size : 628 MiB (14%)
Language : English
Default : Yes
Forced : No

Menu
00:00:00.000 : en:00:00:00.000
00:09:10.240 : en:00:09:10.240
00:20:55.720 : en:00:20:55.720
00:30:02.000 : en:00:30:02.000
00:40:11.400 : en:00:40:11.400
00:49:33.000 : en:00:49:33.000



2 个附件 售价 大小 下载 时间

The.White.Queen.S01.UNCUT.720p.BluRay.x264-VeDeTT[btbtt.me].torrent 0 金币 83.01K 1106 次 7月前

The.White.Queen.S01.UNCUT.1080p.BluRay.x264-VeDeTT[btbtt.me].torrent 0 金币 110.31K 1561 次 7月前

#1楼
发帖时间:2019-02-13 21:33:25   |   回复数:1
911degrees
隐世仙人♂
非常感谢,谢谢分享
7月前 #2楼
游客组