呆呆狐狸
超级版主

[合 集] [英国] [真人] [打包] [BT下载][奥利佛省时轻松煮 第一至二季][全02季打包][英语英字][MKV][1080P][片源]

-->


◎译  名 奥利佛省时轻松煮

◎片  名 Jamie's Quick & Easy Food

◎年  代 2017

◎产  地 英国

◎类  别 真人秀

◎语  言 英语

◎上映日期 2017-08-21(英国)

◎IMDb评分 8.7/10 from 28 users

◎IMDb链接 http://www.imdb.com/title/tt7507476

◎BT之家整理 http://8btbtt.com/ 

◎集  数 8

◎片  长 30分钟

◎导  演 Niall Downing / Ed St. Giles

◎主  演 杰米·奥利弗 Jamie Oliver




◎简  介  


  杰米·奥利佛(Jamie Oliver)展示了一套快速易记的终极烹饪食谱。如果你认为你没有时间做饭-再想想。


Video
ID : 1
Format : AVC
Format/Info : Advanced Video Codec
Format profile : [email protected]
Format settings : CABAC / 4 Ref Frames
Format settings, CABAC : Yes
Format settings, ReFrames : 4 frames
Codec ID : V_MPEG4/ISO/AVC
Duration : 27 min 24 s
Bit rate : 5 910 kb/s
Width : 1 920 pixels
Height : 1 080 pixels
Display aspect ratio : 16:9
Frame rate mode : Constant
Frame rate : 25.000 FPS
Color space : YUV
Chroma subsampling : 4:2:0
Bit depth : 8 bits
Scan type : Progressive
Bits/(Pixel*Frame) : 0.114
Stream size : 1.13 GiB (99%)
Default : Yes
Forced : No

Audio
ID : 2
Format : AAC LC SBR
Format/Info : Advanced Audio Codec Low Complexity with Spectral Band Replication
Commercial name : HE-AAC
Format settings : Explicit
Codec ID : A_AAC-2
Duration : 27 min 24 s
Bit rate : 64.0 kb/s
Channel(s) : 2 channels
Channel layout : L R
Sampling rate : 48.0 kHz
Frame rate : 23.438 FPS (2048 SPF)
Compression mode : Lossy
Stream size : 12.5 MiB (1%)
Language : English
Default : Yes
Forced : No

Text
ID : 3
Format : UTF-8
Codec ID : S_TEXT/UTF8
Codec ID/Info : UTF-8 Plain Text
Duration : 26 min 53 s
Bit rate : 108 b/s
Count of elements : 455
Stream size : 21.4 KiB (0%)
Title : English (SDH)
Language : English
Default : No
Forced : No




#1楼
发帖时间:2019-02-22 14:12:52   |   回复数:1
911degrees
隐世仙人♂
非常感谢,谢谢分享
6月前 #2楼
游客组