呆呆狐狸
超级版主

[2018] [美国] [真人] [打包] [BT下载][橘子郡娇妻 第十三季][全26集打包][英语英字][MKV][1080P][片源]

-->



◎译  名 橘子郡娇妻 第十三季

◎片  名 The Real Housewives of Orange County Season 13

◎年  代 2018

◎产  地 美国

◎语  言 英语

◎上映日期 2018-07-16(美国)

◎IMDb评分 5.1/10 from 10 users

◎IMDb链接 http://www.imdb.com/title/tt8543150

◎BT之家整理 http://8btbtt.com/ 

◎集  数 26

◎片  长 43分钟


◎简  介  


  真人秀节目《亚特兰大贵妇的真实生活》系列一直很受欢迎。最新一版《亚特兰大贵妇的真实生活》(The Real Housewives of Atlanta)本周首播,这已经是该真人秀的第三版了。第一版《橘郡贵妇的真实生活》(The Real Housewives of Orange County),2006年3月首播,女主角泰拉-巴尼(Tamra Barney)在游艇上庆祝自己的四十岁生日,同时得到了丈夫送她的价值四万美金的劳力士。第二版《纽约贵妇的真实生活》(The Real Housewives of New York),女主角是法国路安-德-雷赛伯爵夫人(Countess LuAnn de Lesseps),美国自由女神像的赠送者正式她的祖先。第三版《亚特兰大贵妇的真实生活》的女主角雪莉-怀特菲尔德(Sheree Whitfield)是一位带有三个孩子的离婚妇女,在自家的豪华别墅中举行奢侈的生日聚会。同时,另一部《新泽西贵妇的真实生活》(Real Housewives of New Jersey)也正在酝酿中。这部真人秀系列描写美国富人的生活,童话般的婚礼、名车豪宅、名牌奢侈品,对这些贵妇来说钱就是她们获得特权的法宝,为爬到社交的顶级位置她们可以不择手段。该剧的主创之一安迪-科恩(Andy Cohen)表示,一旦你开始看它就变得欲罢不能。


Video
ID : 1
Format : AVC
Format/Info : Advanced Video Codec
Format profile : [email protected]
Format settings : CABAC / 4 Ref Frames
Format settings, CABAC : Yes
Format settings, ReFrames : 4 frames
Codec ID : V_MPEG4/ISO/AVC
Duration : 43 min 14 s
Bit rate : 12.0 Mb/s
Width : 1 920 pixels
Height : 1 080 pixels
Display aspect ratio : 16:9
Frame rate mode : Constant
Frame rate : 23.976 (24000/1001) FPS
Color space : YUV
Chroma subsampling : 4:2:0
Bit depth : 8 bits
Scan type : Progressive
Bits/(Pixel*Frame) : 0.241
Stream size : 3.62 GiB (95%)
Default : Yes
Forced : No
Color range : Limited
Color primaries : BT.709
Transfer characteristics : BT.709
Matrix coefficients : BT.709

Audio
ID : 2
Format : E-AC-3
Format/Info : Enhanced AC-3
Commercial name : Dolby Digital Plus
Codec ID : A_EAC3
Duration : 43 min 14 s
Bit rate mode : Constant
Bit rate : 640 kb/s
Channel(s) : 6 channels
Channel layout : L R C LFE Ls Rs
Sampling rate : 48.0 kHz
Frame rate : 31.250 FPS (1536 SPF)
Compression mode : Lossy
Stream size : 198 MiB (5%)
Language : English
Service kind : Complete Main
Default : Yes
Forced : No

Text
ID : 3
Format : UTF-8
Codec ID : S_TEXT/UTF8
Codec ID/Info : UTF-8 Plain Text
Duration : 43 min 0 s
Bit rate : 140 b/s
Count of elements : 1200
Stream size : 44.3 KiB (0%)
Title : SDH
Language : English
Default : No
Forced : No



1 个附件 售价 大小 下载 时间

Packages.from.Planet.X.S01.1080p.WEB-DL.DD5.1.H264-SA89[92btbtt.com].torrent 0 金币 59.05K 364 次 6月前

#1楼
发帖时间:2019-02-22 19:50:06   |   回复数:3
liyouchai
隐世仙人♂
谢谢楼主分享资源
6月前 #2楼
911degrees
隐世仙人♂
非常感谢,谢谢分享
6月前 #3楼
爸爸爱冉冉
武林高手
感谢楼主分享
6月前 #4楼
游客组