呆呆狐狸
超级版主

[2019] [美国] [真人] [打包] [BT下载][美国达人秀:冠军赛 第一季][全07集打包][英语英字][MKV][1080P][片源]

-->


◎译  名 美国达人秀:冠军赛 第一季 / 美国达人冠军战

◎片  名 America's Got Talent: The Champions Season 1

◎年  代 2019

◎产  地 美国

◎类  别 音乐 / 家庭 / 真人秀

◎语  言 英语

◎上映日期 2019-01-07(美国)

◎IMDb评分 7.0/10 from 107 users

◎IMDb链接 http://www.imdb.com/title/tt8510328

◎BT之家整理 http://8btbtt.com/ 

◎集  数 7

◎片  长 90

◎主  演 梅兰妮·布朗 Melanie Brown

      西蒙·考威尔 Simon Cowell

      泰瑞·克鲁斯 Terry Crews

      霍伊·曼德尔 Howie Mandel

      海迪·克卢姆 Heidi Klum




◎简  介  


  Described as "the Olympics of talent", it will feature winners, finalists and other successful contestants from previous seasons of America's Got Talent alongside acts from other Got Talent franchises worldwide.


Video
ID : 1
Format : AVC
Format/Info : Advanced Video Codec
Format profile : [email protected]
Format settings : CABAC / 3 Ref Frames
Format settings, CABAC : Yes
Format settings, ReFrames : 3 frames
Codec ID : V_MPEG4/ISO/AVC
Duration : 1 h 23 min
Bit rate mode : Variable
Bit rate : 5 800 kb/s
Maximum bit rate : 8 700 kb/s
Width : 1 920 pixels
Height : 1 080 pixels
Display aspect ratio : 16:9
Frame rate mode : Constant
Frame rate : 29.970 (30000/1001) FPS
Color space : YUV
Chroma subsampling : 4:2:0
Bit depth : 8 bits
Scan type : Progressive
Bits/(Pixel*Frame) : 0.093
Stream size : 3.30 GiB (88%)
Writing library : x264 core 148 r2715 7e75228
Encoding settings : cabac=1 / ref=3 / deblock=1:0:0 / analyse=0x1:0x111 / me=umh / subme=10 / psy=1 / psy_rd=1.00:0.00 / mixed_ref=1 / me_range=24 / chroma_me=1 / trellis=2 / 8x8dct=0 / cqm=0 / deadzone=21,11 / fast_pskip=1 / chroma_qp_offset=-2 / threads=8 / lookahead_threads=1 / sliced_threads=0 / nr=0 / decimate=1 / interlaced=0 / bluray_compat=0 / stitchable=1 / constrained_intra=0 / bframes=2 / b_pyramid=0 / b_adapt=2 / b_bias=0 / direct=3 / weightb=1 / open_gop=0 / weightp=2 / keyint=60 / keyint_min=31 / scenecut=0 / intra_refresh=0 / rc_lookahead=60 / rc=2pass / mbtree=1 / bitrate=5800 / ratetol=1.0 / qcomp=0.50 / qpmin=6 / qpmax=51 / qpstep=4 / cplxblur=20.0 / qblur=0.5 / vbv_maxrate=8700 / vbv_bufsize=11600 / nal_hrd=vbr / filler=0 / ip_ratio=1.40 / aq=1:1.00
Default : Yes
Forced : No

Audio
ID : 2
Format : E-AC-3
Format/Info : Enhanced AC-3
Commercial name : Dolby Digital Plus
Codec ID : A_EAC3
Duration : 1 h 23 min
Bit rate mode : Constant
Bit rate : 640 kb/s
Channel(s) : 6 channels
Channel layout : L R C LFE Ls Rs
Sampling rate : 48.0 kHz
Frame rate : 31.250 FPS (1536 SPF)
Compression mode : Lossy
Stream size : 382 MiB (10%)
Language : English
Service kind : Complete Main
Default : Yes
Forced : No
Encoded date : UTC 2019-01-26 02:28:04

Text #1
ID : 3
Format : UTF-8
Codec ID : S_TEXT/UTF8
Codec ID/Info : UTF-8 Plain Text
Title : English
Language : English
Default : No
Forced : No

Text #2
ID : 4
Format : UTF-8
Codec ID : S_TEXT/UTF8
Codec ID/Info : UTF-8 Plain Text
Title : English
Language : English
Default : No
Forced : No




1 个附件 售价 大小 下载 时间

Americas.Got.Talent-The.Champions.S01.1080p.NF.WEBRip.DDP5.1.x264-TrollHD[92btbtt.com].torrent 0 金币 66.30K 1341 次 6月前

#1楼
发帖时间:2019-02-24 19:53:06   |   回复数:1
911degrees
隐世仙人♂
非常感谢,谢谢分享
6月前 #2楼
游客组