呆呆狐狸
超级版主

[合 集] [美国] [真人] [打包] [BT下载][小镇保全/Small Town Security 第一至三季][全03季打包][英语英字][MKV][1080P][片源]

-->


◎译  名 小镇保全

◎片  名 Small Town Security

◎年  代 2012

◎产  地 美国

◎语  言 英语

◎上映日期 2012-07-15

◎IMDb评分 4.8/10 from 948 users

◎IMDb链接 http://www.imdb.com/title/tt2235942

◎BT之家整理 http://8btbtt.com/ 

◎主  演 Dennis Croft

      Irwin Koplan

      Joan Koplan

      Christa Stephens




◎简  介  


  AMC's new unscripted series| "Small Town Security"| focuses on a small| family-owned private security company located in rural Georgia. Executive produced by KenDruckerman and Banks Tarver from Left/Right (This American Life| Boomtown| Mob Wives)| Season 1 consists of eight| half-hour episodes.


Video
ID : 1
Format : AVC
Format/Info : Advanced Video Codec
Format profile : [email protected]
Format settings : CABAC / 4 Ref Frames
Format settings, CABAC : Yes
Format settings, ReFrames : 4 frames
Codec ID : V_MPEG4/ISO/AVC
Duration : 21 min 6 s
Bit rate mode : Variable
Bit rate : 13.3 Mb/s
Maximum bit rate : 15.0 Mb/s
Width : 1 920 pixels
Height : 1 080 pixels
Display aspect ratio : 16:9
Frame rate mode : Constant
Frame rate : 23.976 (24000/1001) FPS
Color space : YUV
Chroma subsampling : 4:2:0
Bit depth : 8 bits
Scan type : Progressive
Bits/(Pixel*Frame) : 0.268
Stream size : 1.96 GiB (98%)
Language : English
Default : Yes
Forced : No
Color range : Limited
Color primaries : BT.709
Transfer characteristics : BT.709
Matrix coefficients : BT.709

Audio
ID : 2
Format : E-AC-3
Format/Info : Enhanced AC-3
Commercial name : Dolby Digital Plus
Codec ID : A_EAC3
Duration : 21 min 6 s
Bit rate mode : Constant
Bit rate : 224 kb/s
Channel(s) : 2 channels
Channel layout : L R
Sampling rate : 48.0 kHz
Frame rate : 31.250 FPS (1536 SPF)
Compression mode : Lossy
Stream size : 33.8 MiB (2%)
Language : English
Service kind : Complete Main
Default : Yes
Forced : No

Text
ID : 3
Format : UTF-8
Codec ID : S_TEXT/UTF8
Codec ID/Info : UTF-8 Plain Text
Duration : 20 min 32 s
Bit rate : 90 b/s
Count of elements : 437
Stream size : 13.6 KiB (0%)
Title : SDH
Language : English
Default : No
Forced : No




#1楼
发帖时间:2019-02-24 20:40:03   |   回复数:1
911degrees
隐世仙人♂
非常感谢,谢谢分享
6月前 #2楼
游客组