呆呆狐狸
超级版主

[合 集] [美国] [真人] [打包] [BT下载][南方之魅/Southern Charm 第一至四季][全04季打包][英语英字][MKV][1080P][片源]

-->


◎译  名 南方之魅

◎片  名 Southern Charm

◎年  代 2014

◎产  地 美国

◎类  别 真人秀

◎语  言 英语

◎上映日期 2014-03-02

◎IMDb评分 6.2/10 from 535 users

◎IMDb链接 http://www.imdb.com/title/tt2815522

◎BT之家整理 http://8btbtt.com/ 

◎片  长 42分钟

◎导  演 Pete Garcia

◎主  演 Craig Conover

      Cameran Eubanks

      Thomas Ravenel

      Whitney Sudler-Smith

      Shep Rose




◎简  介  


  Southern Charm是一部美国真人秀电视连续剧,于2014年3月3日在Bravo上首次亮相。该系列记录了居住在南卡罗来纳州查尔斯顿的七位社交名流的个人生活和职业生涯。该节目重点关注该地区的南部文化和政治历史,并以Lewisfield种植园和Mikell House等当地历史名胜为特色。


Video
ID : 1
Format : AVC
Format/Info : Advanced Video Codec
Format profile : [email protected]
Format settings : CABAC / 4 Ref Frames
Format settings, CABAC : Yes
Format settings, ReFrames : 4 frames
Codec ID : V_MPEG4/ISO/AVC
Duration : 43 min 10 s
Bit rate mode : Variable
Bit rate : 13.0 Mb/s
Maximum bit rate : 15.0 Mb/s
Width : 1 920 pixels
Height : 1 080 pixels
Display aspect ratio : 16:9
Frame rate mode : Constant
Frame rate : 23.976 (24000/1001) FPS
Color space : YUV
Chroma subsampling : 4:2:0
Bit depth : 8 bits
Scan type : Progressive
Bits/(Pixel*Frame) : 0.261
Stream size : 3.92 GiB (95%)
Default : Yes
Forced : No
Color range : Limited
Color primaries : BT.709
Transfer characteristics : BT.709
Matrix coefficients : BT.709

Audio
ID : 2
Format : E-AC-3
Format/Info : Enhanced AC-3
Commercial name : Dolby Digital Plus
Codec ID : A_EAC3
Duration : 43 min 10 s
Bit rate mode : Constant
Bit rate : 640 kb/s
Channel(s) : 6 channels
Channel layout : L R C LFE Ls Rs
Sampling rate : 48.0 kHz
Frame rate : 31.250 FPS (1536 SPF)
Compression mode : Lossy
Stream size : 198 MiB (5%)
Language : English
Service kind : Complete Main
Default : Yes
Forced : No

Text
ID : 3
Format : UTF-8
Codec ID : S_TEXT/UTF8
Codec ID/Info : UTF-8 Plain Text
Duration : 43 min 2 s
Bit rate : 102 b/s
Count of elements : 1010
Stream size : 32.4 KiB (0%)
Title : SDH
Language : English
Default : No
Forced : No



#1楼
发帖时间:2019-03-02 10:26:00   |   回复数:2
911degrees
隐世仙人♂
非常感谢,谢谢分享
6月前 #2楼
呆呆狐狸
超级版主
追加02-04季
6月前 #3楼
游客组