呆呆狐狸
超级版主

[2012] [美国] [真人] [打包] [BT下载][吉普赛热闹婚礼 第六季][全08集打包][英语英字][MKV][1080P][片源]

-->


◎译  名 吉普赛热闹婚礼 / Bazi nagy amerikai roma lagzi

◎片  名 My Big Fat American Gypsy Wedding

◎年  代 2012

◎产  地 美国

◎语  言 英语

◎上映日期 2012-04-29(美国)

◎IMDb评分 3.9/10 from 320 users

◎IMDb链接 http://www.imdb.com/title/tt2245937

◎BT之家整理 http://8btbtt.com/ 

◎主  演 Ellen K

      Sondra Celli




◎简  介  


  My Big Fat American Gypsy Wedding takes you inside a world full of traditions and celebrations. From Birthdays| to Weddings| to Holy Communions| no expense is sparedand it's all about the bling.


Video
ID : 1
Format : AVC
Format/Info : Advanced Video Codec
Format profile : [email protected]
Format settings : CABAC / 4 Ref Frames
Format settings, CABAC : Yes
Format settings, ReFrames : 4 frames
Codec ID : V_MPEG4/ISO/AVC
Duration : 42 min 34 s
Bit rate mode : Constant
Bit rate : 10 000 kb/s
Width : 1 920 pixels
Height : 1 080 pixels
Display aspect ratio : 16:9
Frame rate mode : Constant
Frame rate : 25.000 FPS
Standard : PAL
Color space : YUV
Chroma subsampling : 4:2:0
Bit depth : 8 bits
Scan type : Progressive
Bits/(Pixel*Frame) : 0.193
Stream size : 2.95 GiB (98%)
Language : English
Default : Yes
Forced : No
Color range : Limited
Color primaries : BT.709
Transfer characteristics : BT.709
Matrix coefficients : BT.709

Audio
ID : 2
Format : E-AC-3
Format/Info : Enhanced AC-3
Commercial name : Dolby Digital Plus
Codec ID : A_EAC3
Duration : 42 min 34 s
Bit rate mode : Constant
Bit rate : 224 kb/s
Channel(s) : 2 channels
Channel layout : L R
Sampling rate : 48.0 kHz
Frame rate : 31.250 FPS (1536 SPF)
Compression mode : Lossy
Stream size : 68.2 MiB (2%)
Language : English
Service kind : Complete Main
Default : Yes
Forced : No

Text
ID : 3
Format : UTF-8
Codec ID : S_TEXT/UTF8
Codec ID/Info : UTF-8 Plain Text
Duration : 42 min 32 s
Bit rate : 99 b/s
Count of elements : 946
Stream size : 31.1 KiB (0%)
Title : SDH
Language : English
Default : No
Forced : No




1 个附件 售价 大小 下载 时间

My.Big.Fat.American.Gypsy.Wedding.S06.1080p.AMZN.WEBRip.DDP2.0.x264-NTb[92btbtt.com].torrent 0 金币 60.84K 245 次 6月前

#1楼
发帖时间:2019-03-05 14:49:37   |   回复数:1
911degrees
隐世仙人♂
非常感谢,谢谢分享
6月前 #2楼
游客组