呆呆狐狸
超级版主

[2011] [美国] [历史] [打包] [BT下载][肯尼迪家族/The Kennedys 第一季][全08集打包][外挂中字][BD-MKV][1080P][片源]

-->


◎译  名 肯尼迪家族

◎片  名 The Kennedys

◎年  代 2011

◎产  地 美国

◎类  别 历史

◎语  言 英语

◎上映日期 2011-04-03(美国)

◎IMDb评分 7.7/10 from 6631 users

◎IMDb链接 http://www.imdb.com/title/tt1567215

◎豆瓣评分 8.2/10 from 2922 users

◎豆瓣链接 https://movie.douban.com/subject/4203891/

◎BT之家整理 http://8btbtt.com/ 

◎集  数 8

◎片  长 44分钟

◎导  演 强·卡萨 Jon Cassar

◎编  剧 Stephen Kronish

◎主  演 杰克·比尔 Jake Beale

      克莉丝汀·布丝 Kristin Booth

      蕾切尔·威尔森 Rachel Wilson

      巴里·佩珀 Barry Pepper

      舍治·哈德   Serge Houde

      克里斯·达玛托普拉斯 Chris Diamantopoulos

      克里斯丁·亚当斯 Kristin Adams

      凯蒂·霍尔姆斯 Katie Holmes

      汤姆·威尔金森 Tom Wilkinson

      Diana Hardcastle

      格雷戈·金尼尔 Greg Kinnear




◎简  介  


  八集迷你剧《肯尼迪家族》(The Kennedys)描述了美国前总统肯尼迪的传奇人生,包括他的早期政坛生涯、兄弟矛盾、与黑帮组织的牵连、滥用毒品和与几个重要女性的关系。本剧还提到了猪湾事件、古巴导弹危机、民权运动及至今仍无定论的肯尼迪遇刺案等重要历史事件。全剧投资3000万美元,演员阵容强大,制作精良,但因为题材太敏感,加上来自高层的压力,美国绝大多数电视网(台)都拒绝播出该剧。几经周折后,该剧被数字电视频道Reelz购得。


Video
ID : 1
Format : AVC
Format/Info : Advanced Video Codec
Format profile : [email protected]
Format settings : CABAC / 4 Ref Frames
Format settings, CABAC : Yes
Format settings, ReFrames : 4 frames
Codec ID : V_MPEG4/ISO/AVC
Duration : 44 min 34 s
Bit rate : 26.8 Mb/s
Width : 1 920 pixels
Height : 1 080 pixels
Display aspect ratio : 16:9
Frame rate mode : Constant
Frame rate : 23.976 (24000/1001) FPS
Color space : YUV
Chroma subsampling : 4:2:0
Bit depth : 8 bits
Scan type : Progressive
Bits/(Pixel*Frame) : 0.538
Stream size : 8.33 GiB (95%)
Writing library : x264 core 157 r2935 545de2f
Encoding settings : cabac=1 / ref=4 / deblock=1:-3:-3 / analyse=0x3:0x133 / me=umh / subme=11 / psy=1 / psy_rd=1.00:0.15 / mixed_ref=1 / me_range=32 / chroma_me=1 / trellis=2 / 8x8dct=1 / cqm=0 / deadzone=21,11 / fast_pskip=0 / chroma_qp_offset=-3 / threads=12 / lookahead_threads=3 / sliced_threads=0 / nr=0 / decimate=0 / interlaced=0 / bluray_compat=0 / constrained_intra=0 / bframes=10 / b_pyramid=2 / b_adapt=2 / b_bias=0 / direct=3 / weightb=1 / open_gop=0 / weightp=2 / keyint=250 / keyint_min=23 / scenecut=40 / intra_refresh=0 / rc_lookahead=60 / rc=crf / mbtree=0 / crf=18.5 / qcomp=0.65 / qpmin=0 / qpmax=69 / qpstep=4 / vbv_maxrate=62500 / vbv_bufsize=78125 / crf_max=0.0 / nal_hrd=none / filler=0 / ip_ratio=1.30 / pb_ratio=1.20 / aq=3:0.80
Default : Yes
Forced : No

Audio
ID : 2
Format : DTS
Format/Info : Digital Theater Systems
Codec ID : A_DTS
Duration : 44 min 30 s
Bit rate mode : Constant
Bit rate : 1 509 kb/s
Channel(s) : 6 channels
Channel layout : C L R Ls Rs LFE
Sampling rate : 48.0 kHz
Frame rate : 93.750 FPS (512 SPF)
Bit depth : 24 bits
Compression mode : Lossy
Stream size : 480 MiB (5%)
Language : English
Default : Yes
Forced : No

Text
ID : 3
Format : PGS
Muxing mode : zlib
Codec ID : S_HDMV/PGS
Codec ID/Info : Picture based subtitle format used on BDs/HD-DVDs
Duration : 42 min 46 s
Bit rate : 53.6 kb/s
Count of elements : 1404
Stream size : 16.4 MiB (0%)
Language : English
Default : No
Forced : No

Menu
00:00:00.000 : en:Chapter 1
00:02:01.246 : en:Chapter 2
00:13:25.930 : en:Chapter 3
00:19:52.525 : en:Chapter 4
00:29:27.724 : en:Chapter 5
00:34:26.314 : en:Chapter 6
00:43:30.233 : en:Chapter 7



2 个附件 售价 大小 下载 时间

The.Kennedys.S01.1080p.BluRay.x264-NTb[92btbtt.com].torrent 0 金币 164.11K 1491 次 6月前

字幕The.Kennedys.S01.1080p.BluRay.x264-NTb.zip 0 金币 299.32K 427 次 6月前

#1楼
发帖时间:2019-03-05 18:13:55   |   回复数:2
911degrees
隐世仙人♂
非常感谢,谢谢分享
6月前 #2楼
呆呆狐狸
超级版主
追加字幕
6月前 #3楼
游客组